<?xml version="1.0" standalone="no"?>
<!DOCTYPE svg PUBLIC "-//W3C//DTD SVG 1.1//EN" "http://www.w3.org/Graphics/SVG/1.1/DTD/svg11.dtd" >
<svg xmlns="http://www.w3.org/2000/svg">
<metadata>
This is a custom SVG webfont generated by Font Squirrel.
Foundry     : Danilo Siqueira and Gustavo Lassala
</metadata>
<defs>
<font id="webfontd9C4djJ7" horiz-adv-x="761" >
<font-face units-per-em="1000" ascent="750" descent="-250" />
<missing-glyph horiz-adv-x="300" />
<glyph unicode=" "  horiz-adv-x="300" />
<glyph unicode="&#x09;" horiz-adv-x="300" />
<glyph unicode="&#xa0;" horiz-adv-x="300" />
<glyph unicode="!" horiz-adv-x="213" d="M30 535v182h153v-182l-40 -336h-73zM107 131q28 0 46 -19.5t18 -48.5q0 -28 -18.5 -47.5t-45.5 -19.5t-45.5 19.5t-18.5 47.5q0 29 18.5 48.5t45.5 19.5z" />
<glyph unicode="&#x22;" horiz-adv-x="420" d="M153 539l-49 -187h-24l-50 188q-10 36 -10 64q0 31 21 52t51 21q32 0 52 -21t20 -49q0 -19 -11 -68zM387 540l-47 -188h-24l-49 188q-12 44 -12 66q0 28 22 49.5t52 21.5q32 0 51.5 -22t19.5 -48q0 -19 -13 -67z" />
<glyph unicode="#" horiz-adv-x="575" d="M229 277h79l40 143h-81zM10 195l22 82h99l39 143h-100l22 82h100l53 197h97l-53 -197h81l52 197h97l-52 -197h98l-22 -82h-98l-39 -143h99l-22 -82h-99l-53 -195h-97l52 195h-80l-53 -195h-97l53 195h-99z" />
<glyph unicode="$" horiz-adv-x="550" d="M256 -52v53q-38 6 -69 26q-59 21 -68 21q-8 0 -15 -4.5t-7 -9.5q-11 -13 -11 -35h-23l-33 290h22q35 -94 67 -145q60 -83 137 -94v259l-6 2q-64 15 -119 48q-56 48 -56 152q0 94 56 151q45 47 125 54v56h54v-55q84 -5 130 -55q60 -50 68 -165h-113q0 56 -45 90 q-24 9 -40 12v-173q46 -15 63 -19l19 -9q14 -7 22 -12l22 -11q13 -7 22 -14.5t16 -15.5q40 -46 45 -109q1 -11 1 -22q0 -49 -19 -92q-23 -53 -61 -81q-31 -24 -59 -32.5t-71 -9.5v-51h-54zM311 289h-1v-239q45 10 69 39q16 14 25 41q7 22 7 47q0 4 -1 9q-1 30 -26.5 59.5 t-72.5 43.5zM209 462q8 -5 47 -18v155q-30 -4 -47 -19q-28 -19 -28 -63q0 -37 28 -55z" />
<glyph unicode="&#x26;" horiz-adv-x="748" d="M537 186l-4 -5l8 -11q34 -49 60.5 -70t55.5 -21q25 0 42 14q7 5 19 25l20 -12q-23 -50 -49 -77q-34 -38 -85 -38q-22 0 -47 7q-37 11 -105 77q-45 -51 -88 -70q-40 -16 -103 -18q-100 0 -165.5 57t-65.5 156q0 130 160 207q-34 41 -51 75t-17 77q0 72 55.5 117.5 t130.5 45.5q85 0 140.5 -45t55.5 -126q0 -109 -127 -178l130 -159q34 33 34 71q0 31 -13 38q-14 8 -58 14v24h211v-24q-43 -6 -56 -19q-15 -13 -55 -83q-5 -10 -33 -49zM265 315q-43 -18 -71.5 -48t-28.5 -70q7 -123 119 -145q12 -1 23 -1q31 0 54 9q32 14 60 49zM380 559 q-1 35 -20 51t-45 17q-27 0 -45.5 -18t-18.5 -45q0 -9 1.5 -18t5.5 -17.5t6.5 -14.5t9.5 -16l10 -13q3 -4 12 -14.5t11 -13.5q36 23 54.5 45t18.5 57z" />
<glyph unicode="'" horiz-adv-x="204" d="M163 540l-48 -187h-24l-51 186q-10 33 -10 64q0 32 21 53t51 21q33 0 52.5 -21.5t19.5 -49.5q0 -20 -11 -66z" />
<glyph unicode="(" horiz-adv-x="330" d="M169 733h119q-59 -111 -98 -221q-27 -73 -39 -227q0 -209 41 -300q26 -57 108 -114v-29q-106 55 -172 148q-86 118 -93 285q-1 13 -1 26q0 91 30 196q35 125 105 236z" />
<glyph unicode=")" horiz-adv-x="330" d="M42 736h119q68 -108 104 -236q31 -109 31 -197q0 -13 -1 -25q-7 -166 -93 -285q-66 -93 -172 -148v29q82 57 108 114q41 91 41 300q-12 154 -39 227q-39 110 -98 221z" />
<glyph unicode="*" horiz-adv-x="448" d="M215 546q-2 30 -6 43q-5 18 -20 46q-16 31 -16 48q0 21 16 38.5t35 17.5q22 0 37 -15.5t15 -41.5q0 -21 -16 -49q-14 -27 -19 -43q-4 -13 -6 -44q24 11 39 20q11 7 34 33q32 32 60 32q21 0 35.5 -14t14.5 -34q0 -22 -18.5 -37.5t-46.5 -15.5l-34 2h-26h-6l66 -95l-62 -44 l-68 92l-70 -92l-62 44l66 95h-25q-38 -2 -39 -2q-27 0 -45 15.5t-18 37.5q0 20 14 34t36 14q30 0 59 -29l37 -36q15 -9 39 -20z" />
<glyph unicode="+" horiz-adv-x="588" d="M230 221h-200v88h200v220h128v-220h200v-88h-200v-221h-128v221z" />
<glyph unicode="," horiz-adv-x="245" d="M48 -175v21q108 48 108 143q0 8 -4 12q-3 4 -7 4q-2 0 -8 -3q-14 -8 -35 -8q-29 0 -50.5 22.5t-21.5 52.5q0 33 24.5 57t59.5 24q43 0 72 -33t29 -89q0 -71 -42.5 -125t-124.5 -78z" />
<glyph unicode="-" horiz-adv-x="340" d="M30 213v132h280v-132h-280z" />
<glyph unicode="." horiz-adv-x="208" d="M30 0v146h148v-146h-148z" />
<glyph unicode="/" horiz-adv-x="431" d="M26 0l279 742h116l-280 -742h-115z" />
<glyph unicode="0" horiz-adv-x="574" d="M172 353q0 -1 2 -117q2 -86 12 -126q27 -95 100 -95q77 0 101 95q12 45 13 126q2 116 2 117q0 23 -0.5 37t-2.5 42.5t-6 47.5t-12.5 43t-20.5 38.5t-31 25t-43 10.5q-27 0 -48 -12t-33 -36t-19 -45.5t-10 -55.5t-3.5 -50.5t-0.5 -44.5zM30 353q0 192 70.5 276.5 t185.5 84.5q55 0 100 -18.5t81.5 -59t56.5 -112.5t20 -171q0 -101 -20 -174.5t-57 -114t-81.5 -59t-99.5 -18.5q-116 0 -186 85t-70 281z" />
<glyph unicode="1" horiz-adv-x="448" d="M171 53q6 38 6 72v10v357h-167v95q66 3 93 9q43 9 68 37q18 19 27 51q6 20 6 28h115l1 -577q0 -58 5 -78q5 -17 23 -28q17 -10 55 -10h15v-19h-349v19h17q71 0 85 34z" />
<glyph unicode="2" horiz-adv-x="588" d="M74 435v14q0 82 34 147q37 69 108 100q48 22 112 22q74 0 133.5 -33.5t86.5 -93.5q20 -42 20 -92q0 -52 -17 -91q-17 -38 -91 -103q-69 -61 -216 -172h101q113 0 128 4q17 5 28 16q8 8 28 46h18l-39 -200h-464v11l201 214q125 134 138 157l28 50q15 25 15 57q0 50 -30 79 q-29 29 -75 29q-44 0 -70 -29t-36 -76q-5 -32 -5 -56h-136z" />
<glyph unicode="3" horiz-adv-x="533" d="M444 350q38 -42 45 -90q3 -19 3 -41v-11q-9 -89 -81 -158q-77 -76 -210 -76q-87 0 -128 29q-29 21 -29 53q0 23 17 40q16 16 38 16q18 0 32 -7q16 -9 58 -44q50 -41 93 -41q38 0 65 30q36 40 36 96q0 28 -9 60q-26 72 -79 92q-30 13 -101 13v107q69 2 95 13q46 19 46 83 q0 41 -24 66t-66 25q-97 0 -95 -115h-130q2 54 18 100q17 43 54 77q56 51 157 51q102 0 164 -53t62 -140q0 -62 -37 -105q-21 -26 -49 -37q19 0 55 -33z" />
<glyph unicode="4" horiz-adv-x="554" d="M306 522h-3l-181 -243h184v243zM306 162h-296v130l361 421h70v-434h93v-117h-93v-162h-135v162z" />
<glyph unicode="5" horiz-adv-x="563" d="M39 345v1h-9l66 371h376v-112h-278l-20 -116q174 -10 273 -85q86 -66 86 -163q0 -65 -41.5 -125t-112.5 -92q-73 -32 -159 -32q-92 0 -144 32q-35 21 -35 50q0 22 18.5 38t42.5 16q22 0 45 -9q18 -6 77 -41q37 -22 58 -29q18 -6 41 -6q46 0 79 30q33 31 33 73 q0 88 -100 143q-95 54 -237 57h-31q-7 -1 -28 -1z" />
<glyph unicode="6" horiz-adv-x="560" d="M80 130q-17 19 -28 80q-10 59 -10 115q0 77 8 131q10 88 47 149q30 50 78 82q49 31 117 31q97 0 156 -50q59 -51 66 -133h-138q0 18 -13 37q-23 33 -68 33q-68 0 -96 -76q-15 -42 -21 -123q24 30 60 44q34 14 77 14q94 0 154 -63q48 -67 48 -151q0 -82 -21 -137 q-26 -56 -80 -87t-119 -31q-70 0 -127.5 35t-89.5 100zM238 333q-32 -31 -34 -99q0 -133 52 -187q18 -19 43 -19t46 28q22 28 28 121q1 17 1 34q0 67 -23 110q-25 34 -61 34q-30 0 -52 -22z" />
<glyph unicode="7" horiz-adv-x="526" d="M291 1h-80l188 585l2 2h-381l2 125l494 1z" />
<glyph unicode="8" horiz-adv-x="509" d="M112 388q-82 54 -82 148q0 78 58 132t164 54t164 -54t58 -132q0 -35 -16 -74q-15 -39 -102 -80q58 -28 95 -88q28 -46 28 -106q0 -84 -63 -142q-63 -57 -171 -57q-102 0 -158 50q-56 51 -56 124q0 54 32 97q24 33 97 90zM209 312q-15 -12 -22 -26q-27 -43 -27 -123 q0 -70 26.5 -106t67.5 -36q38 0 63 28t25 74q0 99 -133 189zM252 433q35 2 60.5 22.5t30.5 61.5q-5 93 -91 93q-42 0 -65.5 -23.5t-23.5 -65.5q0 -40 24 -64t65 -24z" />
<glyph unicode="9" horiz-adv-x="574" d="M123 -2v14q172 42 236 156q28 45 41 97q5 21 5 40v7l-2 2q-54 -78 -158 -78q-45 0 -88 19.5t-73 52.5q-54 63 -54 156q0 109 68.5 182.5t176.5 73.5q208 -5 256 -223q8 -43 8 -93q0 -26 -2 -55q-8 -83 -29 -119q-44 -106 -144 -166.5t-241 -65.5zM279 343q54 0 83.5 37.5 t29.5 92.5q0 52 -31 91t-82 39q-49 0 -78 -38.5t-29 -89.5q0 -54 28 -93t79 -39z" />
<glyph unicode=":" horiz-adv-x="208" d="M30 366v145h148v-145h-148zM30 0v146h148v-146h-148z" />
<glyph unicode=";" horiz-adv-x="237" d="M50 366v145h148v-145h-148zM46 -166v23q51 20 77 57.5t26 79.5q0 9 -4 13q-1 4 -3 4q-4 0 -9 -4q-16 -8 -37 -8q-26 0 -46 21.5t-20 48.5q0 34 23.5 57.5t55.5 23.5q41 0 69.5 -33t28.5 -86q0 -67 -41 -119t-120 -78z" />
<glyph unicode="=" horiz-adv-x="588" d="M30 443h528v-129h-528v129zM30 215h528v-129h-528v129z" />
<glyph unicode="?" horiz-adv-x="531" d="M293 185h-21v22q0 43 6 66q9 35 32 80q18 35 31 68q21 61 21 94q0 35 -20 66q-20 30 -74 30q-53 0 -75 -37t-22 -76h-131q6 137 90 194q54 36 133 36q103 0 170 -52q68 -51 68 -153q-1 -64 -39 -109q-39 -45 -84 -83q-50 -36 -66 -63q-16 -25 -19 -83zM285 125 q28 0 46 -19.5t18 -48.5q0 -28 -18.5 -47.5t-45.5 -19.5t-45.5 19.5t-18.5 47.5q0 29 18.5 48.5t45.5 19.5z" />
<glyph unicode="@" horiz-adv-x="930" d="M509 461q-49 0 -88 -87q-39 -86 -39 -131q0 -25 11 -42t34 -17q55 0 89 94q35 96 35 134q0 49 -42 49zM730 102l22 -34q-135 -88 -281 -88q-165 0 -275 97q-112 94 -112 234q0 158 127 270q125 110 296 110q136 0 230 -73q104 -80 104 -214q0 -106 -69 -186 q-68 -80 -145 -80q-56 0 -83 31q-18 22 -19 45q-47 -76 -120 -76q-56 0 -95 41q-38 43 -38 103q0 81 65 154q65 72 145 72q21 0 42 -8q39 -14 53 -50l14 44h108l-42 -130q-40 -129 -40 -146q0 -18 17 -29q12 -5 20 -5q45 0 93 65q49 64 49 154q0 114 -82 175q-82 63 -190 63 q-158 0 -261 -109q-92 -98 -92 -218q0 -144 100 -223q85 -67 210 -67q90 0 172 34l26 13q26 14 51 31z" />
<glyph unicode="A" d="M257 269h176l-84 282zM264 714h169l205 -579q20 -69 49 -84q21 -21 64 -21v-29h-339v29q20 0 43.5 3.5t27.5 3.5q14 14 14 35q0 14 -7 35q-1 2 -14 43h-261l-50 -149h-155z" />
<glyph unicode="B" horiz-adv-x="763" d="M278 594v-162h170q51 1 78 20t27 64q0 78 -120 78h-155zM278 319v-191h170h7q112 0 112 99q0 47 -32 69.5t-80 22.5h-177zM723 220q-6 -74 -41 -125t-93 -72q-34 -15 -66.5 -18.5t-96.5 -3.5h-416v29q78 0 99 21q28 19 28 91v572h346q127 0 183 -78q28 -37 28 -106 q0 -58 -17.5 -86.5t-66.5 -61.5q53 -21 83 -65t30 -97z" />
<glyph unicode="C" horiz-adv-x="735" d="M195 353q0 -145 70 -226q75 -84 191 -84q42 0 69.5 7t64.5 28q63 42 84 63l21 -14q-7 -12 -19 -24.5t-20.5 -19.5t-26.5 -20.5t-25 -19.5q-90 -57 -191 -57q-178 0 -282 113q-91 115 -91 254q0 187 98 296q87 85 219 85q180 0 261 -120q49 -75 49 -134h-148 q-11 52 -35 77q-39 50 -120 50q-75 0 -127 -64q-42 -63 -42 -190z" />
<glyph unicode="D" horiz-adv-x="763" d="M264 593v-466h134q60 1 101.5 40t58 91t16.5 109q0 113 -37.5 169.5t-138.5 56.5h-134zM426 0h-416v29q64 0 85 21t21 91v572h310q172 0 233 -106q64 -106 64 -233q0 -136 -57 -240q-37 -64 -99 -99t-141 -35z" />
<glyph unicode="E" horiz-adv-x="702" d="M101 119v593h529v-120h-381v-155h346v-127h-346v-219q0 -31 21 -42q1 0 39.5 -3.5t80.5 -3.5q115 0 162 28q54 26 92 113h28l-49 -184h-613v22q58 12 77 21q14 14 14 77z" />
<glyph unicode="F" horiz-adv-x="660" d="M123 164v550h507v-120h-359v-170h317v-119h-317v-163q0 -70 21 -91t98 -21v-29h-380v29q70 0 98 28q15 13 15 106z" />
<glyph unicode="G" horiz-adv-x="775" d="M153 84q-113 115 -113 268q0 167 99 268q86 106 240 106q137 0 218 -71q82 -69 92 -169h-148q-10 71 -78 106q-42 14 -77 14q-89 0 -141 -64q-56 -67 -56 -190q0 -53 1.5 -79t11 -62.5t29.5 -70.5q29 -53 86.5 -79t117.5 -26h43q7 3 24.5 7t24.5 7q31 11 42 21q7 0 7 21 v162q0 37 -2 52.5t-12 25.5q-14 14 -70 14v21h253v-21q-21 0 -49 -14q-21 -11 -21 -64v-197q0 -18 -85 -49q-74 -29 -169 -29q-85 0 -149.5 19t-118.5 73z" />
<glyph unicode="H" horiz-adv-x="740" d="M40 1v713h148v-275h282v275h148v-572q0 -70 21 -91q17 -17 91 -28v-22h-373v22q73 11 91 28q22 21 22 113v155h-282v-318h-148z" />
<glyph unicode="I" horiz-adv-x="453" d="M301 140q0 -70 21 -91q18 -17 91 -28v-22h-373v22q74 11 91 28q21 21 21 91v572h149v-572z" />
<glyph unicode="J" horiz-adv-x="423" d="M383 256q0 -127 -70 -197q-57 -57 -176 -57q-60 0 -99 29q-28 28 -28 63q0 31 15 47.5t41 16.5q53 0 64 -57q10 -24 23.5 -36.5t25.5 -12.5q25 0 35 21q14 28 14 85v557h155v-459z" />
<glyph unicode="K" horiz-adv-x="781" d="M271 141q0 -81 21 -91q28 -28 92 -28v-22h-374v22q74 10 92 28q21 21 21 91v572h148v-297l275 297h191l-297 -297l311 -416h-191l-218 311l-71 -71v-99z" />
<glyph unicode="L" horiz-adv-x="689" d="M256 713v-628q0 -35 22 -35q7 -7 112 -7q110 0 162 21q56 22 99 120h28l-49 -184h-620v22q66 0 77 21q21 11 21 70v600h148z" />
<glyph unicode="M" horiz-adv-x="854" d="M731 140q0 -70 21 -91q15 -15 92 -28v-22h-367v22q83 12 99 28q14 28 14 113v324v56v57l-134 -600h-148l-134 600v-57v-56v-487h-134v713h219l127 -557l126 557h219v-572z" />
<glyph unicode="N" horiz-adv-x="740" d="M263 141q0 -70 21 -91q22 -21 99 -21v-29h-373v29q70 0 98 28q14 7 14 106v550h162l282 -494v494h134v-713h-148l-289 508v-367z" />
<glyph unicode="O" horiz-adv-x="750" d="M720 344q-13 -180 -112 -261q-93 -92 -233 -92q-146 0 -247 99q-98 110 -98 254q0 202 105 296q87 85 240 85q149 0 236 -84q109 -104 109 -297zM565 344q0 131 -49 190q-52 64 -141 64t-141 -64q-56 -67 -56 -190q-1 -18 -1 -35q0 -53 11 -106q15 -70 46 -106 q32 -38 63.5 -54t77.5 -16q78 0 141 63q30 35 42 105q9 47 9 99q0 24 -2 50z" />
<glyph unicode="P" horiz-adv-x="688" d="M482 571q-21 22 -78 22h-133v-212h133q106 1 106 106q0 56 -28 84zM122 163v557h311q101 0 169 -57q56 -56 56 -169q0 -127 -56 -183q-58 -50 -183 -50h-148v-120q0 -70 21 -91t98 -21v-29h-380v29q70 0 98 28q14 14 14 106z" />
<glyph unicode="Q" horiz-adv-x="777" d="M463 -8q69 -93 148 -127q33 -16 126 -28v-14h-35q-129 3 -207.5 27.5t-144.5 92.5l-50 49q-90 20 -162 92q-98 109 -98 253q0 201 105 297q85 84 240 84q147 0 233 -84q112 -102 112 -297q-12 -170 -112 -260q-62 -62 -155 -85zM578 337q0 129 -52 191q-52 63 -141 63 t-141 -63q-59 -71 -59 -191q-1 -16 -1 -32q0 -53 12 -107q17 -71 48 -107q32 -39 63.5 -55t77.5 -16q71 0 134 64q35 35 50 105q11 50 11 104q0 22 -2 44z" />
<glyph unicode="R" horiz-adv-x="740" d="M263 587v-191h162q43 0 71 14q42 21 42 78q0 62 -42 85q-14 14 -63 14h-170zM263 142q0 -70 21 -91q18 -16 99 -28v-22h-373v22q74 11 91 28q21 21 21 113v550h339q99 0 162 -54.5t63 -150.5q0 -55 -21 -99q-29 -48 -84 -70q49 -25 70 -57q14 -28 14 -112v-50 q1 -26 2 -40.5t9.5 -36t23.5 -28.5v-15h-162q-21 48 -21 99v64q0 70 -21 91t-85 21h-148v-134z" />
<glyph unicode="S" horiz-adv-x="631" d="M512 29q-53 -44 -146 -46h-7q-88 0 -162 46q-24 17 -45 17t-38 -17q-14 -14 -14 -36h-28l-42 296h28q41 -93 84 -148q89 -98 205 -98q32 0 60.5 19t41.5 48q11 26 11 54v8q-2 33 -34 65.5t-90 51.5l-77 22q-83 16 -148 49q-71 50 -71 155q0 95 71 155q68 57 197 57 q124 0 190 -57q75 -52 85 -169h-141q0 57 -57 92q-42 14 -84 14q-61 0 -92 -21q-35 -19 -35 -64q0 -22 7 -34t28 -22q8 -4 92 -28q2 -1 68 -18.5t107.5 -34.5t64.5 -39q50 -47 57 -110q2 -13 2 -27q0 -47 -20 -89q-24 -53 -68 -91z" />
<glyph unicode="T" horiz-adv-x="598" d="M377 149q0 -78 21 -99q18 -18 91 -28v-22h-373v22q49 7 91 28q21 21 21 99v437h-218v127h578v-127h-211v-437z" />
<glyph unicode="U" horiz-adv-x="677" d="M322 65q69 0 107.5 27t61.5 79q17 39 22.5 70t5.5 92v218q0 92 -21 113q-17 17 -85 28v22h254v-22q-68 -11 -84 -35q-14 -28 -14 -106v-267q0 -103 -36 -177q-76 -120 -239 -120q-86 0 -133 26t-86 87q-35 72 -35 176v438h155v-438q0 -77 14 -133q12 -32 40.5 -55 t72.5 -23z" />
<glyph unicode="V" horiz-adv-x="647" d="M249 0l-239 713h155l162 -550l117 320q52 143 52 159q0 49 -77 49v22h218v-22q-66 -2 -98 -98l-233 -593h-57z" />
<glyph unicode="W" horiz-adv-x="1015" d="M786 714h219v-22q-29 0 -50 -21q-14 -7 -49 -77l-233 -593h-56l-169 494l-99 -494h-134l-205 713h138l137 -522l99 522h155l155 -550l155 401q15 52 15 78q0 31 -22 42q-14 7 -56 7v22z" />
<glyph unicode="X" horiz-adv-x="717" d="M10 -1l232 367l-218 346h176l127 -233l127 233h176l-219 -346l163 -254q21 -35 56 -70q42 -14 77 -21v-22h-380v22q91 3 91 42q0 23 -91 183l-141 -247h-176z" />
<glyph unicode="Y" horiz-adv-x="654" d="M405 162q0 -92 21 -113q42 -21 91 -21v-29h-373v29q74 10 91 28q21 21 21 106v105l-246 445h176l148 -311l141 311h169l-239 -445v-105z" />
<glyph unicode="Z" horiz-adv-x="675" d="M454 588h-353v127h543v-120l-444 -553h261q92 0 134 42q33 49 49 99h21l-28 -184h-627v15z" />
<glyph unicode="\" horiz-adv-x="415" d="M10 742h115l280 -742h-116z" />
<glyph unicode="`" horiz-adv-x="360" d="M185 750l94 -146h-101l-148 146h155z" />
<glyph unicode="a" horiz-adv-x="566" d="M191 216h132l-63 196zM197 532h126l152 -427q14 -51 37 -62q15 -15 47 -15v-27h-252v27q15 0 32.5 3.5t20.5 3.5q10 8 10 21q0 8 -5 21l-10 26h-195l-37 -102h-116z" />
<glyph unicode="b" horiz-adv-x="626" d="M234 419v-87h125q77 2 77 45q0 42 -88 42h-114zM234 225v-105h125h9q81 0 81 54q0 26 -23.5 38.5t-59.5 12.5h-132zM596 171q-13 -117 -126 -150q-27 -14 -53 -17t-77 -3h-333v27q60 0 75 20q20 12 20 66v418h290q108 0 153 -58q23 -27 23 -79q0 -43 -16 -64t-62 -46 q50 -15 78 -45.5t28 -68.5z" />
<glyph unicode="c" horiz-adv-x="578" d="M176 256q0 -101 52 -157q55 -58 143 -58q52 0 99 24q46 29 63 44l16 -10q-6 -11 -14.5 -21t-15.5 -16.5t-19.5 -17t-18.5 -16.5q-69 -41 -148 -41q-136 0 -217 93q-86 83 -86 181q0 132 92 210q68 80 168 80q137 0 200 -98q38 -63 38 -109h-110q-7 33 -27 53 q-29 35 -89 35q-57 0 -95 -44q-31 -43 -31 -132z" />
<glyph unicode="d" horiz-adv-x="626" d="M225 418v-299h100q65 1 98 48t33 106q0 72 -28 108.5t-103 36.5h-100zM347 0h-340v27q49 0 64 15t15 68v421h257q144 0 193 -100q60 -69 60 -151q0 -90 -53 -157q-30 -58 -81 -90.5t-115 -32.5z" />
<glyph unicode="e" horiz-adv-x="551" d="M75 96v439h423v-113h-284v-90h258v-119h-258v-140q0 -21 16 -27l29 -4q29 -3 60 -3q86 0 121 20q40 16 69 73h20l-36 -133h-486v21q40 9 58 20q10 10 10 56z" />
<glyph unicode="f" horiz-adv-x="519" d="M91 127v405h406v-113h-267v-103h236v-113h-236v-104q0 -44 16 -58q14 -13 73 -13v-27h-312v27q52 0 73 21q11 9 11 78z" />
<glyph unicode="g" horiz-adv-x="625" d="M120 59q-90 82 -90 192q0 119 93 192q67 100 186 100q106 0 169 -67q75 -53 83 -128h-129q-7 48 -58 72q-32 10 -58 10q-66 0 -105 -45q-41 -46 -41 -132q0 -37 1 -55t8 -43.5t22 -49.5q21 -37 64 -54.5t88 -17.5h32q5 3 18 5t18 5q26 8 32 14q5 0 5 14v111q0 42 -11 53 q-10 10 -52 10v21h208v-21q-17 0 -37 -10q-15 -7 -15 -44v-137q0 -12 -80 -34q-61 -27 -136 -27q-141 0 -215 66z" />
<glyph unicode="h" horiz-adv-x="608" d="M30 1v531h139v-194h210v194h139v-422q0 -52 15 -67q13 -13 68 -21v-21h-306v21q56 8 67 19q17 15 17 78v106h-210v-224h-139z" />
<glyph unicode="i" horiz-adv-x="365" d="M253 109q0 -53 15 -68q13 -13 68 -21v-21h-306v21q53 7 67 21q16 16 16 68v426h140v-426z" />
<glyph unicode="j" horiz-adv-x="369" d="M339 189q0 -95 -62 -147q-51 -43 -155 -43q-54 0 -88 27q-27 22 -27 48q0 24 14.5 36.5t38.5 12.5q49 0 60 -41q7 -17 17.5 -26.5t19.5 -9.5q19 0 26 15q10 20 10 63v409h146v-344z" />
<glyph unicode="k" horiz-adv-x="610" d="M230 108q0 -59 16 -67q20 -20 69 -20v-21h-308v21q55 7 69 21q15 15 15 67v422h139v-222l206 222h142l-222 -222l232 -309h-142l-163 232l-53 -52v-72z" />
<glyph unicode="l" horiz-adv-x="541" d="M219 531v-458q0 -26 17 -26q5 -7 83 -7q82 0 121 15q41 15 74 89h20l-36 -144h-491v21q51 0 58 19q15 8 15 52v439h139z" />
<glyph unicode="m" horiz-adv-x="731" d="M640 109q0 -53 15 -68q12 -12 69 -21v-21h-312v21l84 -2q12 20 12 84v242v41v43l-109 -429h-139l-104 411v-39v-38v-334h-126v536h198l104 -409l104 409h204v-426z" />
<glyph unicode="n" horiz-adv-x="604" d="M222 109q0 -51 16 -67q16 -15 74 -15v-27h-305v27q53 0 73 20q10 5 10 79v405h148l210 -366v366h126v-531h-136l-216 376v-267z" />
<glyph unicode="o" horiz-adv-x="617" d="M595 246q-13 -125 -105 -181q-73 -73 -182 -73q-116 0 -194 78q-92 80 -92 181q0 143 99 211q71 80 195 80q120 0 191 -65q88 -80 88 -231zM449 246q0 93 -36 133q-38 44 -105 44t-105 -44q-42 -47 -42 -133q-1 -14 -1 -28q0 -34 8 -68q12 -49 35 -75q24 -26 47.5 -37.5 t57.5 -11.5q58 0 105 44q23 25 32 74q6 31 6 64q0 19 -2 38z" />
<glyph unicode="p" horiz-adv-x="569" d="M388 405q-16 14 -58 14h-100v-133h100q78 1 78 66q0 37 -20 53zM90 126v412h262q87 0 143 -53q52 -41 52 -127q0 -97 -52 -138q-47 -47 -146 -47h-119v-76q0 -43 16 -57q14 -13 73 -13v-27h-312v27q52 0 73 21q10 10 10 78z" />
<glyph unicode="q" horiz-adv-x="636" d="M373 -9q54 -65 117 -90q30 -12 117 -20v-13h-32q-106 2 -169.5 20t-116.5 68l-40 35q-70 14 -127 66q-92 80 -92 184q0 146 98 216q67 79 187 79q114 0 181 -79q106 -77 106 -221q-12 -120 -106 -184q-49 -45 -123 -61zM459 236q0 91 -39 136t-105 45t-105 -45 q-44 -51 -44 -136q-1 -14 -1 -28q0 -34 9 -70q12 -49 36 -76q24 -28 47 -39.5t58 -11.5q54 0 100 46q27 25 38 75q8 34 8 70q0 17 -2 34z" />
<glyph unicode="r" horiz-adv-x="610" d="M222 413v-118h124q29 0 54 9q31 13 31 48q0 39 -35 52q-10 9 -47 9h-127zM222 97q0 -43 16 -57q14 -11 74 -18v-21h-305v21q55 8 68 21q15 15 15 83v406h289q85 0 138 -41t53 -113q0 -42 -19 -74q-28 -43 -79 -62q47 -23 65 -53q13 -18 13 -73v-32q3 -58 30 -69v-14h-149 q-20 32 -20 65v42q0 46 -15 60q-16 14 -63 14h-111v-85z" />
<glyph unicode="s" horiz-adv-x="509" d="M407 26q-41 -41 -114 -44h-7q-69 0 -125 44q-19 16 -35 16t-30 -16q-11 -15 -11 -32h-26l-37 214h24q38 -65 79 -104q69 -69 159 -69q58 0 91 36q18 20 18 38t-16 35q-28 31 -101 47l-57 16q-57 15 -111 51q-79 38 -79 121q0 74 57 121q55 44 158 44q99 0 152 -54 q57 -43 64 -133h-105q0 40 -43 64q-32 10 -62 10q-45 0 -69 -15q-26 -11 -26 -38q0 -13 5.5 -20t20.5 -13q4 -1 69 -16q8 -3 39 -11t53 -14.5t48 -18t39 -24.5q47 -35 55 -81q2 -12 2 -24q0 -33 -16 -62q-22 -40 -63 -68z" />
<glyph unicode="t" horiz-adv-x="473" d="M309 109q0 -53 16 -69q11 -11 68 -19v-21h-307v21q42 6 68 19q15 15 15 69v303h-162v119h459v-119h-157v-303z" />
<glyph unicode="u" horiz-adv-x="544" d="M270 61q52 0 80.5 19t45.5 57q21 46 21 116v157q0 65 -16 81q-12 12 -63 20v21h199v-21q-52 -8 -63 -25q-10 -20 -10 -76v-192q0 -74 -34 -127q-61 -103 -192 -103q-69 0 -106.5 22.5t-68.5 75.5q-33 51 -33 128v318h146v-318q0 -57 10 -97q22 -56 84 -56z" />
<glyph unicode="v" horiz-adv-x="481" d="M185 0l-178 531h116l121 -406l80 217q45 120 45 132q0 36 -57 36v21h162v-21q-49 -1 -73 -72l-173 -438h-43z" />
<glyph unicode="w" horiz-adv-x="776" d="M606 532h163v-21q-23 0 -38 -15q-9 -4 -36 -57l-174 -438h-41l-126 366l-75 -366h-119l-153 531h103l102 -386l79 386h120l115 -406l126 292q12 39 12 57q0 23 -17 31q-10 5 -41 5v21z" />
<glyph unicode="x" horiz-adv-x="533" d="M7 -1l173 278l-162 258h131l94 -174l95 174h131l-163 -258l121 -189q16 -26 42 -52q42 -13 57 -16v-21h-283v21q68 3 68 31q0 18 -68 137l-104 -189h-132z" />
<glyph unicode="y" horiz-adv-x="515" d="M330 126q0 -68 16 -84q32 -16 68 -16v-27h-307v27q55 8 68 21q15 15 15 79v78l-183 332h131l126 -232l119 232h125l-178 -332v-78z" />
<glyph unicode="z" horiz-adv-x="502" d="M338 414h-263v119h405v-112l-331 -382h194q68 0 100 29q27 38 37 68h15l-20 -137h-468v14z" />
<glyph unicode="&#xa1;" horiz-adv-x="213" d="M30 -4v182l40 336h73l40 -336v-182h-153zM107 582q-27 0 -45.5 19.5t-18.5 48.5q0 28 18.5 47.5t45.5 19.5t45.5 -19.5t18.5 -47.5q0 -29 -18 -48.5t-46 -19.5z" />
<glyph unicode="&#xa8;" horiz-adv-x="382" d="M225 613v116h127v-116h-127zM30 613v116h127v-116h-127z" />
<glyph unicode="&#xaa;" horiz-adv-x="566" d="M191 216h132l-63 196zM197 532h126l152 -427q14 -51 37 -62q15 -15 47 -15v-27h-252v27q15 0 32.5 3.5t20.5 3.5q10 8 10 21q0 8 -5 21l-10 26h-195l-37 -102h-116z" />
<glyph unicode="&#xad;" horiz-adv-x="340" d="M30 213v132h280v-132h-280z" />
<glyph unicode="&#xb2;" horiz-adv-x="588" d="M74 435v14q0 82 34 147q37 69 108 100q48 22 112 22q74 0 133.5 -33.5t86.5 -93.5q20 -42 20 -92q0 -52 -17 -91q-17 -38 -91 -103q-69 -61 -216 -172h101q113 0 128 4q17 5 28 16q8 8 28 46h18l-39 -200h-464v11l201 214q125 134 138 157l28 50q15 25 15 57q0 50 -30 79 q-29 29 -75 29q-44 0 -70 -29t-36 -76q-5 -32 -5 -56h-136z" />
<glyph unicode="&#xb3;" horiz-adv-x="533" d="M444 350q38 -42 45 -90q3 -19 3 -41v-11q-9 -89 -81 -158q-77 -76 -210 -76q-87 0 -128 29q-29 21 -29 53q0 23 17 40q16 16 38 16q18 0 32 -7q16 -9 58 -44q50 -41 93 -41q38 0 65 30q36 40 36 96q0 28 -9 60q-26 72 -79 92q-30 13 -101 13v107q69 2 95 13q46 19 46 83 q0 41 -24 66t-66 25q-97 0 -95 -115h-130q2 54 18 100q17 43 54 77q56 51 157 51q102 0 164 -53t62 -140q0 -62 -37 -105q-21 -26 -49 -37q19 0 55 -33z" />
<glyph unicode="&#xb4;" horiz-adv-x="309" d="M124 750h155l-148 -146h-101z" />
<glyph unicode="&#xb8;" horiz-adv-x="296" d="M266 -133q0 -44 -36.5 -70.5t-94.5 -26.5q-27 0 -60 10q-6 2 -45 16l18 42l38 -11q24 -6 38 -6q28 0 41.5 11.5t13.5 27.5q0 19 -13 28t-31 9q-15 0 -41 -8l-63 57l101 54h53l-43 -64q32 6 38 6q40 0 63 -19.5t23 -55.5z" />
<glyph unicode="&#xb9;" horiz-adv-x="448" d="M171 53q6 38 6 72v10v357h-167v95q66 3 93 9q43 9 68 37q18 19 27 51q6 20 6 28h115l1 -577q0 -58 5 -78q5 -17 23 -28q17 -10 55 -10h15v-19h-349v19h17q71 0 85 34z" />
<glyph unicode="&#xba;" horiz-adv-x="617" d="M595 246q-13 -125 -105 -181q-73 -73 -182 -73q-116 0 -194 78q-92 80 -92 181q0 143 99 211q71 80 195 80q120 0 191 -65q88 -80 88 -231zM449 246q0 93 -36 133q-38 44 -105 44t-105 -44q-42 -47 -42 -133q-1 -14 -1 -28q0 -34 8 -68q12 -49 35 -75q24 -26 47.5 -37.5 t57.5 -11.5q58 0 105 44q23 25 32 74q6 31 6 64q0 19 -2 38z" />
<glyph unicode="&#xbc;" horiz-adv-x="1525" d="M1277 522h-3l-181 -243h184v243zM1277 162h-296v130l361 421h70v-434h93v-117h-93v-162h-135v162zM536 -1h-78l424 725h79zM171 53q6 38 6 72v10v357h-167v95q66 3 93 9q43 9 68 37q18 19 27 51q6 20 6 28h115l1 -577q0 -58 5 -78q5 -17 23 -28q17 -10 55 -10h15v-19 h-349v19h17q71 0 85 34z" />
<glyph unicode="&#xbd;" horiz-adv-x="1559" d="M1045 435v14q0 82 34 147q37 69 108 100q48 22 112 22q74 0 133.5 -33.5t86.5 -93.5q20 -42 20 -92q0 -52 -17 -91q-17 -38 -91 -103q-69 -61 -216 -172h101q113 0 128 4q17 5 28 16q8 8 28 46h18l-39 -200h-464v11l201 214q125 134 138 157l28 50q15 25 15 57 q0 50 -30 79q-29 29 -75 29q-44 0 -70 -29t-36 -76q-5 -32 -5 -56h-136zM536 -1h-78l424 725h79zM171 53q6 38 6 72v10v357h-167v95q66 3 93 9q43 9 68 37q18 19 27 51q6 20 6 28h115l1 -577q0 -58 5 -78q5 -17 23 -28q17 -10 55 -10h15v-19h-349v19h17q71 0 85 34z" />
<glyph unicode="&#xbe;" horiz-adv-x="1610" d="M1362 522h-3l-181 -243h184v243zM1362 162h-296v130l361 421h70v-434h93v-117h-93v-162h-135v162zM621 -1h-78l424 725h79zM444 350q38 -42 45 -90q3 -19 3 -41v-11q-9 -89 -81 -158q-77 -76 -210 -76q-87 0 -128 29q-29 21 -29 53q0 23 17 40q16 16 38 16q18 0 32 -7 q16 -9 58 -44q50 -41 93 -41q38 0 65 30q36 40 36 96q0 28 -9 60q-26 72 -79 92q-30 13 -101 13v107q69 2 95 13q46 19 46 83q0 41 -24 66t-66 25q-97 0 -95 -115h-130q2 54 18 100q17 43 54 77q56 51 157 51q102 0 164 -53t62 -140q0 -62 -37 -105q-21 -26 -49 -37 q19 0 55 -33z" />
<glyph unicode="&#xbf;" horiz-adv-x="521" d="M238 533h21v-22q0 -43 -6 -67q-9 -35 -32 -79q-18 -35 -31 -68q-21 -61 -21 -94q0 -35 20 -66q19 -30 74 -30q52 0 74 37q23 38 23 76h131q-6 -137 -90 -194q-54 -36 -133 -36q-102 0 -170 51q-68 53 -68 154q2 65 39 108q37 45 84 84q49 36 66 62q16 26 19 84zM246 593 q-28 0 -46 19.5t-18 48.5q0 28 18.5 47.5t45.5 19.5t45.5 -19.5t18.5 -47.5q0 -29 -18.5 -48.5t-45.5 -19.5z" />
<glyph unicode="&#xc0;" d="M257 269h176l-84 282zM264 714h169l205 -579q20 -69 49 -84q21 -21 64 -21v-29h-339v29q20 0 43.5 3.5t27.5 3.5q14 14 14 35q0 14 -7 35q-1 2 -14 43h-261l-50 -149h-155zM323 940l94 -146h-101l-148 146h155z" />
<glyph unicode="&#xc1;" d="M257 269h176l-84 282zM264 714h169l205 -579q20 -69 49 -84q21 -21 64 -21v-29h-339v29q20 0 43.5 3.5t27.5 3.5q14 14 14 35q0 14 -7 35q-1 2 -14 43h-261l-50 -149h-155zM370 941h155l-148 -146h-101z" />
<glyph unicode="&#xc2;" d="M257 269h176l-84 282zM264 714h169l205 -579q20 -69 49 -84q21 -21 64 -21v-29h-339v29q20 0 43.5 3.5t27.5 3.5q14 14 14 35q0 14 -7 35q-1 2 -14 43h-261l-50 -149h-155zM410 940l114 -146h-113l-64 82l-64 -82h-113l115 146h125z" />
<glyph unicode="&#xc3;" d="M349 551l-92 -282h176zM264 714h169l205 -579q20 -69 49 -84q21 -21 64 -21v-29h-339v29q20 0 43.5 3.5t27.5 3.5q14 14 14 35q0 14 -7 35q-1 2 -14 43h-261l-50 -149h-155zM338 892l46 -17q33 -11 41 -11q37 0 46 42h65q-19 -120 -111 -120q-16 0 -43 7l-31 9l-39 13 q-14 5 -32 5q-19 0 -30 -10q-13 -13 -17 -31h-63q11 52 28 76q31 46 92 46q26 0 48 -9z" />
<glyph unicode="&#xc4;" d="M257 269h176l-84 282zM264 714h169l205 -579q20 -69 49 -84q21 -21 64 -21v-29h-339v29q20 0 43.5 3.5t27.5 3.5q14 14 14 35q0 14 -7 35q-1 2 -14 43h-261l-50 -149h-155zM384 793v116h127v-116h-127zM189 793v116h127v-116h-127z" />
<glyph unicode="&#xc7;" horiz-adv-x="735" d="M485 -133q0 -44 -36.5 -70.5t-94.5 -26.5q-27 0 -60 10q-6 2 -45 16l18 42l38 -11q24 -6 38 -6q28 0 41.5 11.5t13.5 27.5q0 19 -13 28t-31 9q-15 0 -41 -8l-63 57l85 46q-122 18 -204 107q-91 115 -91 254q0 187 98 296q87 85 219 85q180 0 261 -120q49 -75 49 -134 h-148q-11 52 -35 77q-39 50 -120 50q-75 0 -127 -64q-42 -63 -42 -190q0 -145 70 -226q75 -84 191 -84q42 0 69.5 7t64.5 28q63 42 84 63l21 -14q-7 -12 -19 -24.5t-20.5 -19.5t-26.5 -20.5t-25 -19.5q-90 -57 -191 -57q-3 0 -9 0.5t-9 0.5l-34 -51q31 6 38 6q40 0 63 -19.5 t23 -55.5z" />
<glyph unicode="&#xc8;" horiz-adv-x="702" d="M101 119v593h529v-120h-381v-155h346v-127h-346v-219q0 -31 21 -42q1 0 39.5 -3.5t80.5 -3.5q115 0 162 28q54 26 92 113h28l-49 -184h-613v22q58 12 77 21q14 14 14 77zM313 940l94 -146h-101l-148 146h155z" />
<glyph unicode="&#xc9;" horiz-adv-x="702" d="M101 119v593h529v-120h-381v-155h346v-127h-346v-219q0 -31 21 -42q1 0 39.5 -3.5t80.5 -3.5q115 0 162 28q54 26 92 113h28l-49 -184h-613v22q58 12 77 21q14 14 14 77zM410 941h155l-148 -146h-101z" />
<glyph unicode="&#xca;" horiz-adv-x="702" d="M101 119v593h529v-120h-381v-155h346v-127h-346v-219q0 -31 21 -42q1 0 39.5 -3.5t80.5 -3.5q115 0 162 28q54 26 92 113h28l-49 -184h-613v22q58 12 77 21q14 14 14 77zM448 938l114 -146h-113l-64 82l-64 -82h-113l115 146h125z" />
<glyph unicode="&#xcb;" horiz-adv-x="702" d="M101 119v593h529v-120h-381v-155h346v-127h-346v-219q0 -31 21 -42q1 0 39.5 -3.5t80.5 -3.5q115 0 162 28q54 26 92 113h28l-49 -184h-613v22q58 12 77 21q14 14 14 77zM394 792v116h127v-116h-127zM199 792v116h127v-116h-127z" />
<glyph unicode="&#xcc;" horiz-adv-x="453" d="M301 140q0 -70 21 -91q18 -17 91 -28v-22h-373v22q74 11 91 28q21 21 21 91v572h149v-572zM205 940l94 -146h-101l-148 146h155z" />
<glyph unicode="&#xcd;" horiz-adv-x="453" d="M301 140q0 -70 21 -91q18 -17 91 -28v-22h-373v22q74 11 91 28q21 21 21 91v572h149v-572zM250 940h155l-148 -146h-101z" />
<glyph unicode="&#xce;" horiz-adv-x="453" d="M301 140q0 -70 21 -91q18 -17 91 -28v-22h-373v22q74 11 91 28q21 21 21 91v572h149v-572zM289 941l114 -146h-113l-64 82l-64 -82h-113l115 146h125z" />
<glyph unicode="&#xcf;" horiz-adv-x="453" d="M301 140q0 -70 21 -91q18 -17 91 -28v-22h-373v22q74 11 91 28q21 21 21 91v572h149v-572zM260 794v116h127v-116h-127zM65 794v116h127v-116h-127z" />
<glyph unicode="&#xd1;" horiz-adv-x="740" d="M263 508v-367q0 -70 21 -91q22 -21 99 -21v-29h-373v29q70 0 98 28q14 7 14 106v550h162l282 -494v494h134v-713h-148zM372 895l46 -17q33 -11 41 -11q37 0 46 42h65q-19 -120 -111 -120q-16 0 -43 7l-31 9l-39 13q-14 5 -32 5q-19 0 -30 -10q-13 -13 -17 -31h-63 q11 52 28 76q31 46 92 46q26 0 48 -9z" />
<glyph unicode="&#xd2;" horiz-adv-x="750" d="M720 344q-13 -180 -112 -261q-93 -92 -233 -92q-146 0 -247 99q-98 110 -98 254q0 202 105 296q87 85 240 85q149 0 236 -84q109 -104 109 -297zM565 344q0 131 -49 190q-52 64 -141 64t-141 -64q-56 -67 -56 -190q-1 -18 -1 -35q0 -53 11 -106q15 -70 46 -106 q32 -38 63.5 -54t77.5 -16q78 0 141 63q30 35 42 105q9 47 9 99q0 24 -2 50zM333 940l94 -146h-101l-148 146h155z" />
<glyph unicode="&#xd3;" horiz-adv-x="750" d="M720 344q-13 -180 -112 -261q-93 -92 -233 -92q-146 0 -247 99q-98 110 -98 254q0 202 105 296q87 85 240 85q149 0 236 -84q109 -104 109 -297zM565 344q0 131 -49 190q-52 64 -141 64t-141 -64q-56 -67 -56 -190q-1 -18 -1 -35q0 -53 11 -106q15 -70 46 -106 q32 -38 63.5 -54t77.5 -16q78 0 141 63q30 35 42 105q9 47 9 99q0 24 -2 50zM423 940h155l-148 -146h-101z" />
<glyph unicode="&#xd4;" horiz-adv-x="750" d="M720 344q-13 -180 -112 -261q-93 -92 -233 -92q-146 0 -247 99q-98 110 -98 254q0 202 105 296q87 85 240 85q149 0 236 -84q109 -104 109 -297zM565 344q0 131 -49 190q-52 64 -141 64t-141 -64q-56 -67 -56 -190q-1 -18 -1 -35q0 -53 11 -106q15 -70 46 -106 q32 -38 63.5 -54t77.5 -16q78 0 141 63q30 35 42 105q9 47 9 99q0 24 -2 50zM432 940l114 -146h-113l-64 82l-64 -82h-113l115 146h125z" />
<glyph unicode="&#xd5;" horiz-adv-x="750" d="M720 344q-13 -180 -112 -261q-93 -92 -233 -92q-146 0 -247 99q-98 110 -98 254q0 202 105 296q87 85 240 85q149 0 236 -84q109 -104 109 -297zM565 344q0 131 -49 190q-52 64 -141 64t-141 -64q-56 -67 -56 -190q-1 -18 -1 -35q0 -53 11 -106q15 -70 46 -106 q32 -38 63.5 -54t77.5 -16q78 0 141 63q30 35 42 105q9 47 9 99q0 24 -2 50zM359 899l46 -17q33 -11 41 -11q37 0 46 42h65q-19 -120 -111 -120q-16 0 -43 7l-31 9l-39 13q-14 5 -32 5q-19 0 -30 -10q-13 -13 -17 -31h-63q11 52 28 76q31 46 92 46q26 0 48 -9z" />
<glyph unicode="&#xd6;" horiz-adv-x="750" d="M720 344q-13 -180 -112 -261q-93 -92 -233 -92q-146 0 -247 99q-98 110 -98 254q0 202 105 296q87 85 240 85q149 0 236 -84q109 -104 109 -297zM565 344q0 131 -49 190q-52 64 -141 64t-141 -64q-56 -67 -56 -190q-1 -18 -1 -35q0 -53 11 -106q15 -70 46 -106 q32 -38 63.5 -54t77.5 -16q78 0 141 63q30 35 42 105q9 47 9 99q0 24 -2 50zM409 794v116h127v-116h-127zM214 794v116h127v-116h-127z" />
<glyph unicode="&#xd9;" horiz-adv-x="677" d="M322 65q69 0 107.5 27t61.5 79q17 39 22.5 70t5.5 92v218q0 92 -21 113q-17 17 -85 28v22h254v-22q-68 -11 -84 -35q-14 -28 -14 -106v-267q0 -103 -36 -177q-76 -120 -239 -120q-86 0 -133 26t-86 87q-35 72 -35 176v438h155v-438q0 -77 14 -133q12 -32 40.5 -55 t72.5 -23zM272 940l94 -146h-101l-148 146h155z" />
<glyph unicode="&#xda;" horiz-adv-x="677" d="M322 65q69 0 107.5 27t61.5 79q17 39 22.5 70t5.5 92v218q0 92 -21 113q-17 17 -85 28v22h254v-22q-68 -11 -84 -35q-14 -28 -14 -106v-267q0 -103 -36 -177q-76 -120 -239 -120q-86 0 -133 26t-86 87q-35 72 -35 176v438h155v-438q0 -77 14 -133q12 -32 40.5 -55 t72.5 -23zM347 940h155l-148 -146h-101z" />
<glyph unicode="&#xdb;" horiz-adv-x="677" d="M322 65q69 0 107.5 27t61.5 79q17 39 22.5 70t5.5 92v218q0 92 -21 113q-17 17 -85 28v22h254v-22q-68 -11 -84 -35q-14 -28 -14 -106v-267q0 -103 -36 -177q-76 -120 -239 -120q-86 0 -133 26t-86 87q-35 72 -35 176v438h155v-438q0 -77 14 -133q12 -32 40.5 -55 t72.5 -23zM395 940l114 -146h-113l-64 82l-64 -82h-113l115 146h125z" />
<glyph unicode="&#xdc;" horiz-adv-x="677" d="M322 65q69 0 107.5 27t61.5 79q17 39 22.5 70t5.5 92v218q0 92 -21 113q-17 17 -85 28v22h254v-22q-68 -11 -84 -35q-14 -28 -14 -106v-267q0 -103 -36 -177q-76 -120 -239 -120q-86 0 -133 26t-86 87q-35 72 -35 176v438h155v-438q0 -77 14 -133q12 -32 40.5 -55 t72.5 -23zM368 794v116h127v-116h-127zM173 794v116h127v-116h-127z" />
<glyph unicode="&#xdd;" horiz-adv-x="654" d="M370 931h155l-148 -146h-101zM405 162q0 -92 21 -113q42 -21 91 -21v-29h-373v29q74 10 91 28q21 21 21 106v105l-246 445h176l148 -311l141 311h169l-239 -445v-105z" />
<glyph unicode="&#xe0;" horiz-adv-x="603" d="M214 318l47 6q39 5 55 12q30 14 30 39q0 32 -22 45t-67 13q-51 0 -70 -24q-16 -19 -20 -49h-134q4 70 39 115q55 70 189 70q88 0 156 -35t68 -131q0 -289 3 -300q6 -19 23 -19q15 0 30 22l18 -15q-30 -44 -61 -63t-71 -19q-49 0 -74 22q-17 14 -26 37l-43 -35 q-46 -26 -102 -26q-74 0 -120 42.5t-46 116.5q0 98 75 142q41 23 123 34zM345 207v52q-24 -17 -63 -23l-31 -6q-41 -7 -63 -19q-33 -19 -33 -59q0 -34 19 -51t49 -17q45 0 83 26q38 27 39 97zM271 750l94 -146h-101l-148 146h155z" />
<glyph unicode="&#xe1;" horiz-adv-x="603" d="M214 318l47 6q39 5 55 12q30 14 30 39q0 32 -22 45t-67 13q-51 0 -70 -24q-16 -19 -20 -49h-134q4 70 39 115q55 70 189 70q88 0 156 -35t68 -131q0 -289 3 -300q6 -19 23 -19q15 0 30 22l18 -15q-30 -44 -61 -63t-71 -19q-49 0 -74 22q-17 14 -26 37l-43 -35 q-46 -26 -102 -26q-74 0 -120 42.5t-46 116.5q0 98 75 142q41 23 123 34zM345 207v52q-24 -17 -63 -23l-31 -6q-41 -7 -63 -19q-33 -19 -33 -59q0 -34 19 -51t49 -17q45 0 83 26q38 27 39 97zM321 750h155l-148 -146h-101z" />
<glyph unicode="&#xe2;" horiz-adv-x="603" d="M214 318l47 6q39 5 55 12q30 14 30 39q0 32 -22 45t-67 13q-51 0 -70 -24q-16 -19 -20 -49h-134q4 70 39 115q55 70 189 70q88 0 156 -35t68 -131q0 -289 3 -300q6 -19 23 -19q15 0 30 22l18 -15q-30 -44 -61 -63t-71 -19q-49 0 -74 22q-17 14 -26 37l-43 -35 q-46 -26 -102 -26q-74 0 -120 42.5t-46 116.5q0 98 75 142q41 23 123 34zM345 207v52q-24 -17 -63 -23l-31 -6q-41 -7 -63 -19q-33 -19 -33 -59q0 -34 19 -51t49 -17q45 0 83 26q38 27 39 97zM364 750l114 -146h-113l-64 82l-64 -82h-113l115 146h125z" />
<glyph unicode="&#xe3;" horiz-adv-x="603" d="M214 318l47 6q39 5 55 12q30 14 30 39q0 32 -22 45t-67 13q-51 0 -70 -24q-16 -19 -20 -49h-134q4 70 39 115q55 70 189 70q88 0 156 -35t68 -131q0 -289 3 -300q6 -19 23 -19q15 0 30 22l18 -15q-30 -44 -61 -63t-71 -19q-49 0 -74 22q-17 14 -26 37l-43 -35 q-46 -26 -102 -26q-74 0 -120 42.5t-46 116.5q0 98 75 142q41 23 123 34zM345 207v52q-24 -17 -63 -23l-31 -6q-41 -7 -63 -19q-33 -19 -33 -59q0 -34 19 -51t49 -17q45 0 83 26q38 27 39 97zM254 724l46 -17q33 -11 41 -11q37 0 46 42h65q-19 -120 -111 -120q-16 0 -43 7 l-31 9l-39 13q-14 5 -32 5q-19 0 -30 -10q-13 -13 -17 -31h-63q11 52 28 76q31 46 92 46q26 0 48 -9z" />
<glyph unicode="&#xe4;" horiz-adv-x="603" d="M214 318l47 6q39 5 55 12q30 14 30 39q0 32 -22 45t-67 13q-51 0 -70 -24q-16 -19 -20 -49h-134q4 70 39 115q55 70 189 70q88 0 156 -35t68 -131q0 -289 3 -300q6 -19 23 -19q15 0 30 22l18 -15q-30 -44 -61 -63t-71 -19q-49 0 -74 22q-17 14 -26 37l-43 -35 q-46 -26 -102 -26q-74 0 -120 42.5t-46 116.5q0 98 75 142q41 23 123 34zM345 207v52q-24 -17 -63 -23l-31 -6q-41 -7 -63 -19q-33 -19 -33 -59q0 -34 19 -51t49 -17q45 0 83 26q38 27 39 97zM328 613v116h127v-116h-127zM133 613v116h127v-116h-127z" />
<glyph unicode="&#xe7;" horiz-adv-x="560" d="M398 -133q0 -44 -36.5 -70.5t-94.5 -26.5q-27 0 -60 10q-6 2 -45 16l18 42l38 -11q24 -6 38 -6q28 0 41.5 11.5t13.5 27.5q0 19 -13 28t-31 9q-15 0 -41 -8l-63 57l66 36q-14 1 -31 6q-55 14 -98 69q-60 77 -60 198q0 138 66.5 214t184.5 76q99 0 164 -45t75 -159h-142 q-5 32 -20 54q-24 32 -73 32q-71 0 -96 -70q-14 -39 -14 -98q0 -58 14 -94q15 -41 59 -68q43 -26 93 -28h10q43 0 70 15q29 16 66 56l19 -15q-40 -73 -99 -111q-56 -33 -115 -36l-28 -42q32 6 38 6q40 0 63 -19.5t23 -55.5z" />
<glyph unicode="&#xe8;" horiz-adv-x="585" d="M499 443q32 -47 41 -110q4 -37 4 -85v-20h-364q2 -95 43 -132q42 -36 97 -38h5q108 0 168 95l19 -12q-42 -88 -94 -123q-49 -31 -121 -36h-3q-108 0 -177 65q-77 66 -77 214q0 138 70 211q71 74 182 74q143 0 207 -103zM184 319h216q-4 55 -33 84t-75 29q-47 0 -74.5 -30 t-33.5 -83zM255 750l94 -146h-101l-148 146h155z" />
<glyph unicode="&#xe9;" horiz-adv-x="585" d="M499 443q32 -47 41 -110q4 -37 4 -85v-20h-364q2 -95 43 -132q42 -36 97 -38h5q108 0 168 95l19 -12q-42 -88 -94 -123q-49 -31 -121 -36h-3q-108 0 -177 65q-77 66 -77 214q0 138 70 211q71 74 182 74q143 0 207 -103zM184 319h216q-4 55 -33 84t-75 29q-47 0 -74.5 -30 t-33.5 -83zM333 750h155l-148 -146h-101z" />
<glyph unicode="&#xea;" horiz-adv-x="585" d="M499 443q32 -47 41 -110q4 -37 4 -85v-20h-364q2 -95 43 -132q42 -36 97 -38h5q108 0 168 95l19 -12q-42 -88 -94 -123q-49 -31 -121 -36h-3q-108 0 -177 65q-77 66 -77 214q0 138 70 211q71 74 182 74q143 0 207 -103zM184 319h216q-4 55 -33 84t-75 29q-47 0 -74.5 -30 t-33.5 -83zM355 750l114 -146h-113l-64 82l-64 -82h-113l115 146h125z" />
<glyph unicode="&#xeb;" horiz-adv-x="585" d="M499 443q32 -47 41 -110q4 -37 4 -85v-20h-364q2 -95 43 -132q42 -36 97 -38h5q108 0 168 95l19 -12q-42 -88 -94 -123q-49 -31 -121 -36h-3q-108 0 -177 65q-77 66 -77 214q0 138 70 211q71 74 182 74q143 0 207 -103zM184 319h216q-4 55 -33 84t-75 29q-47 0 -74.5 -30 t-33.5 -83zM335 601v116h127v-116h-127zM140 601v116h127v-116h-127z" />
<glyph unicode="&#xec;" horiz-adv-x="295" d="M217 532v-432q0 -52 12 -65q13 -15 46 -16v-19h-255v19q32 2 42 13q11 14 14 68v432h141zM127 749l94 -146h-101l-148 146h155z" />
<glyph unicode="&#xed;" horiz-adv-x="295" d="M217 532v-432q0 -52 12 -65q13 -15 46 -16v-19h-255v19q32 2 42 13q11 14 14 68v432h141zM171 749h155l-148 -146h-101z" />
<glyph unicode="&#xee;" horiz-adv-x="295" d="M217 532v-432q0 -52 12 -65q13 -15 46 -16v-19h-255v19q32 2 42 13q11 14 14 68v432h141zM211 749l114 -146h-113l-64 82l-64 -82h-113l115 146h125z" />
<glyph unicode="&#xef;" horiz-adv-x="295" d="M217 532v-432q0 -52 12 -65q13 -15 46 -16v-19h-255v19q32 2 42 13q11 14 14 68v432h141zM182 604v116h127v-116h-127zM-13 604v116h127v-116h-127z" />
<glyph unicode="&#xf1;" horiz-adv-x="585" d="M30 0v15q44 6 44 76v6v434h134v-77q28 42 51 59q44 32 109 32q81 0 134 -44t53 -143v-358h-142v324q0 40 -11 64q-21 41 -79 41q-70 0 -97 -60q-13 -30 -13 -81v-191q0 -46 9.5 -62t34.5 -20v-15h-227zM289 709l46 -17q33 -11 41 -11q37 0 46 42h65q-19 -120 -111 -120 q-16 0 -43 7l-31 9l-39 13q-14 5 -32 5q-19 0 -30 -10q-13 -13 -17 -31h-63q11 52 28 76q31 46 92 46q26 0 48 -9z" />
<glyph unicode="&#xf2;" horiz-adv-x="624" d="M432 195q1 23 1 44q0 113 -28 149q-32 44 -93 44t-94 -44q-27 -36 -27 -144q0 -23 1 -49q0 -167 120 -167t120 167zM312 -19q-137 0 -205 83q-67 83 -67 201q0 116 67 199q67 85 205 85q137 0 204 -85q68 -85 68 -199q0 -116 -68 -201q-68 -83 -204 -83zM291 750l94 -146 h-101l-148 146h155z" />
<glyph unicode="&#xf3;" horiz-adv-x="624" d="M432 195q1 23 1 44q0 113 -28 149q-32 44 -93 44t-94 -44q-27 -36 -27 -144q0 -23 1 -49q0 -167 120 -167t120 167zM312 -19q-137 0 -205 83q-67 83 -67 201q0 116 67 199q67 85 205 85q137 0 204 -85q68 -85 68 -199q0 -116 -68 -201q-68 -83 -204 -83zM335 750h155 l-148 -146h-101z" />
<glyph unicode="&#xf4;" horiz-adv-x="624" d="M432 195q1 23 1 44q0 113 -28 149q-32 44 -93 44t-94 -44q-27 -36 -27 -144q0 -23 1 -49q0 -167 120 -167t120 167zM312 -19q-137 0 -205 83q-67 83 -67 201q0 116 67 199q67 85 205 85q137 0 204 -85q68 -85 68 -199q0 -116 -68 -201q-68 -83 -204 -83zM375 750 l114 -146h-113l-64 82l-64 -82h-113l115 146h125z" />
<glyph unicode="&#xf5;" horiz-adv-x="624" d="M432 195q1 23 1 44q0 113 -28 149q-32 44 -93 44t-94 -44q-27 -36 -27 -144q0 -23 1 -49q0 -167 120 -167t120 167zM312 -19q-137 0 -205 83q-67 83 -67 201q0 116 67 199q67 85 205 85q137 0 204 -85q68 -85 68 -199q0 -116 -68 -201q-68 -83 -204 -83zM297 713l46 -17 q33 -11 41 -11q37 0 46 42h65q-19 -120 -111 -120q-16 0 -43 7l-31 9l-39 13q-14 5 -32 5q-19 0 -30 -10q-13 -13 -17 -31h-63q11 52 28 76q31 46 92 46q26 0 48 -9z" />
<glyph unicode="&#xf6;" horiz-adv-x="624" d="M432 195q1 23 1 44q0 113 -28 149q-32 44 -93 44t-94 -44q-27 -36 -27 -144q0 -23 1 -49q0 -167 120 -167t120 167zM312 -19q-137 0 -205 83q-67 83 -67 201q0 116 67 199q67 85 205 85q137 0 204 -85q68 -85 68 -199q0 -116 -68 -201q-68 -83 -204 -83zM346 603v116h127 v-116h-127zM151 603v116h127v-116h-127z" />
<glyph unicode="&#xf9;" horiz-adv-x="561" d="M501 532v-433q0 -51 9 -65q10 -13 41 -16v-18h-186v71v4q-7 -19 -28 -36q-32 -29 -62.5 -40t-72.5 -11q-119 0 -159 85q-23 48 -23 138v321h143v-321q0 -47 10 -68q19 -40 75 -40q71 0 98 57q13 30 13 83v289h142zM226 750l94 -146h-101l-148 146h155z" />
<glyph unicode="&#xfa;" horiz-adv-x="561" d="M501 532v-433q0 -51 9 -65q10 -13 41 -16v-18h-186v71v4q-7 -19 -28 -36q-32 -29 -62.5 -40t-72.5 -11q-119 0 -159 85q-23 48 -23 138v321h143v-321q0 -47 10 -68q19 -40 75 -40q71 0 98 57q13 30 13 83v289h142zM290 750h155l-148 -146h-101z" />
<glyph unicode="&#xfb;" horiz-adv-x="561" d="M501 532v-433q0 -51 9 -65q10 -13 41 -16v-18h-186v71v4q-7 -19 -28 -36q-32 -29 -62.5 -40t-72.5 -11q-119 0 -159 85q-23 48 -23 138v321h143v-321q0 -47 10 -68q19 -40 75 -40q71 0 98 57q13 30 13 83v289h142zM331 750l114 -146h-113l-64 82l-64 -82h-113l115 146 h125z" />
<glyph unicode="&#xfc;" horiz-adv-x="561" d="M501 532v-433q0 -51 9 -65q10 -13 41 -16v-18h-186v71v4q-7 -19 -28 -36q-32 -29 -62.5 -40t-72.5 -11q-119 0 -159 85q-23 48 -23 138v321h143v-321q0 -47 10 -68q19 -40 75 -40q71 0 98 57q13 30 13 83v289h142zM298 604v116h127v-116h-127zM103 604v116h127v-116h-127 z" />
<glyph unicode="&#xfd;" horiz-adv-x="515" d="M301 748h155l-148 -146h-101zM330 126q0 -68 16 -84q32 -16 68 -16v-27h-307v27q55 8 68 21q15 15 15 79v78l-183 332h131l126 -232l119 232h125l-178 -332v-78z" />
<glyph unicode="&#xff;" horiz-adv-x="515" d="M291 602v116h127v-116h-127zM96 602v116h127v-116h-127zM330 126q0 -68 16 -84q32 -16 68 -16v-27h-307v27q55 8 68 21q15 15 15 79v78l-183 332h131l126 -232l119 232h125l-178 -332v-78z" />
<glyph unicode="&#x152;" horiz-adv-x="1452" d="M851 119v593h529v-120h-381v-155h346v-127h-346v-219q0 -31 21 -42q1 0 39.5 -3.5t80.5 -3.5q115 0 162 28q54 26 92 113h28l-49 -184h-613v22q58 12 77 21q14 14 14 77zM720 344q-13 -180 -112 -261q-93 -92 -233 -92q-146 0 -247 99q-98 110 -98 254q0 202 105 296 q87 85 240 85q149 0 236 -84q109 -104 109 -297zM565 344q0 131 -49 190q-52 64 -141 64t-141 -64q-56 -67 -56 -190q-1 -18 -1 -35q0 -53 11 -106q15 -70 46 -106q32 -38 63.5 -54t77.5 -16q78 0 141 63q30 35 42 105q9 47 9 99q0 24 -2 50z" />
<glyph unicode="&#x153;" horiz-adv-x="1168" d="M692 96v439h423v-113h-284v-90h258v-119h-258v-140q0 -21 16 -27l29 -4q29 -3 60 -3q86 0 121 20q40 16 69 73h20l-36 -133h-486v21q40 9 58 20q10 10 10 56zM595 246q-13 -125 -105 -181q-73 -73 -182 -73q-116 0 -194 78q-92 80 -92 181q0 143 99 211q71 80 195 80 q120 0 191 -65q88 -80 88 -231zM449 246q0 93 -36 133q-38 44 -105 44t-105 -44q-42 -47 -42 -133q-1 -14 -1 -28q0 -34 8 -68q12 -49 35 -75q24 -26 47.5 -37.5t57.5 -11.5q58 0 105 44q23 25 32 74q6 31 6 64q0 19 -2 38z" />
<glyph unicode="&#x178;" horiz-adv-x="654" d="M361 785v116h127v-116h-127zM166 785v116h127v-116h-127zM405 162q0 -92 21 -113q42 -21 91 -21v-29h-373v29q74 10 91 28q21 21 21 106v105l-246 445h176l148 -311l141 311h169l-239 -445v-105z" />
<glyph unicode="&#x2c6;" horiz-adv-x="414" d="M270 750l114 -146h-113l-64 82l-64 -82h-113l115 146h125z" />
<glyph unicode="&#x2dc;" horiz-adv-x="426" d="M198 724l46 -17q33 -11 41 -11q37 0 46 42h65q-19 -120 -111 -120q-16 0 -43 7l-31 9l-39 13q-14 5 -32 5q-19 0 -30 -10q-13 -13 -17 -31h-63q11 52 28 76q31 46 92 46q26 0 48 -9z" />
<glyph unicode="&#x2000;" horiz-adv-x="470" />
<glyph unicode="&#x2001;" horiz-adv-x="941" />
<glyph unicode="&#x2002;" horiz-adv-x="470" />
<glyph unicode="&#x2003;" horiz-adv-x="941" />
<glyph unicode="&#x2004;" horiz-adv-x="313" />
<glyph unicode="&#x2005;" horiz-adv-x="235" />
<glyph unicode="&#x2006;" horiz-adv-x="156" />
<glyph unicode="&#x2007;" horiz-adv-x="156" />
<glyph unicode="&#x2008;" horiz-adv-x="117" />
<glyph unicode="&#x2009;" horiz-adv-x="188" />
<glyph unicode="&#x200a;" horiz-adv-x="52" />
<glyph unicode="&#x2010;" horiz-adv-x="340" d="M30 213v132h280v-132h-280z" />
<glyph unicode="&#x2011;" horiz-adv-x="340" d="M30 213v132h280v-132h-280z" />
<glyph unicode="&#x2013;" horiz-adv-x="500" d="M30 213v132h440v-132h-440z" />
<glyph unicode="&#x2014;" horiz-adv-x="1000" d="M30 213v132h940v-132h-940z" />
<glyph unicode="&#x2018;" horiz-adv-x="199" d="M30 452v103q0 142 137 172v-51q-51 -15 -67 -55q-8 -16 -8 -33v-7h77v-129h-139z" />
<glyph unicode="&#x2019;" horiz-adv-x="200" d="M33 443v51q48 15 66 51q8 17 8 36v8h-77v128h140v-103q0 -144 -137 -171z" />
<glyph unicode="&#x201a;" horiz-adv-x="245" d="M48 -175v21q108 48 108 143q0 8 -4 12q-3 4 -7 4q-2 0 -8 -3q-14 -8 -35 -8q-29 0 -50.5 22.5t-21.5 52.5q0 33 24.5 57t59.5 24q43 0 72 -33t29 -89q0 -71 -42.5 -125t-124.5 -78z" />
<glyph unicode="&#x201c;" horiz-adv-x="430" d="M261 452v103q0 142 137 172v-51q-50 -15 -66 -55q-8 -16 -8 -33v-7h76v-129h-139zM30 452v103q0 143 137 172v-51q-51 -17 -67 -54q-9 -21 -8 -41h77v-129h-139z" />
<glyph unicode="&#x201d;" horiz-adv-x="429" d="M263 443v51q50 15 67 56q6 16 6 39h-76v128h139v-103q0 -146 -136 -171zM32 443v51q49 16 67 54q7 16 7 33v8h-76v128h139v-103q0 -145 -137 -171z" />
<glyph unicode="&#x2026;" horiz-adv-x="624" d="M446 0v146h148v-146h-148zM238 0v146h148v-146h-148zM30 0v146h148v-146h-148z" />
<glyph unicode="&#x202f;" horiz-adv-x="188" />
<glyph unicode="&#x2044;" horiz-adv-x="523" d="M88 -1h-78l424 725h79z" />
<glyph unicode="&#x205f;" horiz-adv-x="235" />
<glyph unicode="&#x2122;" horiz-adv-x="1452" d="M1329 140q0 -70 21 -91q15 -15 92 -28v-22h-367v22q83 12 99 28q14 28 14 113v324v56v57l-134 -600h-148l-134 600v-57v-56v-487h-134v713h219l127 -557l126 557h219v-572zM377 149q0 -78 21 -99q18 -18 91 -28v-22h-373v22q49 7 91 28q21 21 21 99v437h-218v127h578 v-127h-211v-437z" />
</font>
</defs>
</svg>
