<?xml version="1.0" standalone="no"?>
<!DOCTYPE svg PUBLIC "-//W3C//DTD SVG 1.1//EN" "http://www.w3.org/Graphics/SVG/1.1/DTD/svg11.dtd" >
<svg xmlns="http://www.w3.org/2000/svg">
<metadata>
This is a custom SVG webfont generated by Font Squirrel.
</metadata>
<defs>
<font id="webfontgFKOTJV1" horiz-adv-x="690" >
<font-face units-per-em="2048" ascent="1591" descent="-457" />
<missing-glyph horiz-adv-x="437" />
<glyph unicode="ff" horiz-adv-x="1243" d="M59 807q0 32 11 43.5t58 11.5q6 0 29 -1t31 -1q25 0 30 6t5 30q0 117 55.5 242.5t151.5 208.5q72 61 152 90.5t147 29.5q58 0 109 -19.5t78.5 -39t29.5 -19.5q4 0 27.5 22.5t54.5 49t82 49t103 22.5q49 0 81 -14.5t32 -39.5q0 -29 -9 -60q-10 -33 -20.5 -46t-33.5 -13 q-11 0 -21 8t-18 17.5t-31.5 17.5t-58.5 8q-67 0 -113 -39.5t-70.5 -115.5t-34.5 -166.5t-10 -211.5q0 -14 3 -18t14 -4q15 0 43 -0.5t41 -0.5q47 0 77 6t38.5 14t17 14t18.5 6q15 0 15 -32q0 -27 -26 -72q-11 -18 -51 -18q-44 0 -68.5 -1t-92.5 -1q-19 0 -24 -12 q-10 -22 -10 -210q0 -32 -0.5 -148t-0.5 -203q0 -56 17 -88.5t41.5 -42t49 -12.5t41.5 -9t17 -23q0 -24 -23 -24q-1 0 -39 3t-84.5 6t-67.5 3q-25 0 -58.5 -5t-95.5 -5q-52 0 -52 22q0 12 8 19.5t20 10.5t26 10t26 16t20 30t8 52q0 15 1 81t2.5 195.5t1.5 299.5 q0 23 -9.5 29.5t-43.5 6.5q-82 0 -106 -1t-204 -1q-30 0 -30 -21v-239q0 -30 -0.5 -78t-0.5 -67v-115q0 -81 5.5 -109t27.5 -53q10 -11 47 -21.5t67 -21.5t30 -24q0 -8 -8 -14.5t-20 -6.5q-1 0 -42.5 2.5t-91 5t-70.5 2.5q-19 0 -64.5 -5.5t-108.5 -5.5q-27 0 -27 23 q0 14 11.5 20.5t28 11t33.5 13t28.5 31.5t11.5 60q0 15 -0.5 82.5t-0.5 199.5v301q0 18 -8.5 23t-29.5 5h-84q-19 0 -28.5 7.5t-11 14t-1.5 16.5zM364 886q0 -17 4.5 -22.5t19.5 -5.5q48 0 187.5 -2t150.5 -2q24 0 30.5 9t6.5 33q0 76 12.5 144.5t27.5 107.5l27 68 q13 31 13 41q0 18 -33.5 48t-81 54t-81.5 24q-33 0 -68.5 -14.5t-74.5 -51.5t-69.5 -91.5t-50.5 -142.5t-20 -197z" />
<glyph unicode="fi" horiz-adv-x="1113" d="M60 798q0 55 45 55q9 0 42 -2t41 -2q25 0 33.5 11.5t8.5 35.5q0 122 32 225t84.5 172.5t120 118.5t138 71.5t139.5 22.5q71 0 99.5 -25t28.5 -54q0 -18 -16 -77.5t-36 -59.5q-7 0 -13 7l-17 19q-10 13 -24 23q-26 18 -40.5 26.5t-50.5 19.5t-75 11q-71 0 -116 -50 q-12 -13 -28 -41.5t-38.5 -83t-37.5 -143.5t-15 -192q0 -13 1 -20.5t6.5 -13t15.5 -5.5q75 0 159.5 0.5t108.5 0.5q55 0 130.5 28t93.5 28q11 0 21.5 -11.5t10.5 -31.5q0 -15 -2 -37.5t-5 -60t-5 -171t-2 -342.5q0 -96 17 -141.5t71 -60.5q11 -3 38.5 -7t38 -10.5 t10.5 -22.5q0 -7 -2 -11t-10 -7.5t-24 -3.5q-19 0 -73 7t-100 7q-61 0 -116 -6.5t-66 -6.5q-48 0 -48 17q0 10 10.5 19.5t25.5 14.5q43 14 56 31q22 29 25 152q2 58 2 200v203q0 10 0.5 27t0.5 24q0 41 -21 70t-57 29l-272 6q-34 0 -34 -26l-5 -124q-6 -151 -6 -286 q0 -34 0.5 -81t0.5 -62q0 -83 26.5 -114t105.5 -43q46 -7 46 -35q0 -6 -12.5 -12.5t-27.5 -6.5q-1 0 -38 2t-82 4t-66 2q-36 0 -102 -3t-70 -3q-33 0 -33 24q0 13 11.5 18.5t28.5 9.5t33.5 12t28 32.5t11.5 64.5v83q0 67 0.5 198.5t0.5 301.5q0 23 -4 28t-24 5 q-9 0 -39.5 1.5t-49.5 1.5q-30 0 -37 5t-7 21z" />
<glyph unicode="fl" horiz-adv-x="1110" d="M58 798q0 38 17 50t67 12q15 0 34 -0.5t24 -0.5q18 0 23.5 5t5.5 22q0 121 33 226t84 175t114 120.5t121.5 73.5t107.5 23q15 0 49.5 -2.5t43.5 -2.5q38 0 67 18.5t49 18.5q21 0 21 -50q0 -9 -2.5 -45.5t-5.5 -103.5t-3 -149v-115q0 -97 -3 -163.5t-3 -108.5v-611 q0 -46 12.5 -76t31 -42t40.5 -19.5t40.5 -9t31 -8t12.5 -20.5q0 -16 -9.5 -21.5t-38.5 -5.5q-18 0 -90 4.5t-106 4.5q-54 0 -94 -4.5t-56 -4.5q-15 0 -24.5 7t-9.5 13q0 14 12 22t29 15.5t34.5 20t29.5 42.5t12 75q0 440 2 666t2 409q0 41 -12 70t-26.5 43t-38.5 21.5 t-37.5 8.5t-34.5 1q-57 0 -102 -34q-69 -52 -104.5 -187.5t-35.5 -257.5q0 -68 10 -68q141 0 184 6q10 1 44.5 18t46.5 17q15 0 15 -15q0 -22 -27.5 -62.5t-58.5 -40.5q-44 0 -80.5 0.5t-104.5 0.5q-14 0 -23 -8.5t-9 -21.5q0 -2 -1 -76.5t-2 -177.5t-1 -174v-56 q0 -144 35 -183q20 -22 79 -34q4 -1 11 -2l12 -3q22 -5 27.5 -13t5.5 -21q0 -5 -1 -8t-6 -5.5t-15 -2.5q-1 0 -30.5 3.5t-67.5 7t-59 3.5q-36 0 -115.5 -8.5t-85.5 -8.5q-15 0 -27.5 8.5t-12.5 23.5q0 18 36 27t44 19q28 34 28 112q0 15 -0.5 76t-1 185.5t-0.5 294.5 q0 23 -9 32.5t-29 9.5q-9 0 -34 -2t-44 -2q-29 0 -38 6t-9 18z" />
<glyph unicode="ffi" horiz-adv-x="1646" d="M58 807q0 31 11 40.5t58 9.5h60q25 0 31.5 8t6.5 31q0 116 43.5 223t114 182.5t162 120.5t183.5 45q61 0 115 -23.5t84 -46.5t32 -23q4 0 29.5 21.5t59 47t89.5 47t113 21.5q156 0 156 -69q0 -33 -16 -87.5t-37 -54.5q-11 0 -16.5 6t-13 19t-20.5 23q-28 22 -71.5 39 t-80.5 17q-246 0 -246 -527q0 -14 3 -18t14 -4q16 0 44 -0.5t40 -0.5q78 0 157 3t102 3q42 0 71 13.5t47.5 27t37.5 13.5q24 0 24 -40q0 -5 -4 -59.5t-4 -156.5l1 -91v-366q0 -50 12.5 -83.5t31 -46t40.5 -19.5t40.5 -7.5t31 -6.5t12.5 -20q0 -7 -2 -12t-12 -9t-29 -4 t-65 3.5t-92 3.5q-61 0 -116 -6.5t-66 -6.5q-48 0 -48 17q0 10 10.5 19.5t25.5 14.5q43 14 56 31q22 29 25 152q2 58 2 200v203q0 10 0.5 27t0.5 24q0 41 -21 72.5t-57 31.5q-18 0 -65 -1t-58 -1q-44 0 -68.5 -1t-92.5 -1q-19 0 -25 -14q-9 -24 -9 -213q0 -32 1.5 -128.5 t1.5 -183.5q0 -49 5.5 -83t16.5 -52.5t22.5 -27.5t28.5 -15q15 -5 43.5 -10t42 -10.5t13.5 -15.5q0 -15 -4.5 -20t-20.5 -5q-5 0 -65.5 4t-125.5 5q-27 0 -69 -6t-93 -6q-47 0 -47 25q0 17 29 24q3 1 14 2.5t16 3.5t15 7t15 14.5t11 24t8.5 37t2.5 52.5v552q0 19 -1.5 26 t-9 12t-25.5 5q-82 0 -116 -2t-214 -2q-17 0 -23.5 -6t-6.5 -20v-239q0 -30 -0.5 -78t-0.5 -67v-115q0 -51 6 -83.5t13.5 -46t23.5 -34.5q9 -12 43.5 -22t62.5 -20t28 -23q0 -9 -8.5 -17t-19.5 -8q-1 0 -42.5 3t-91 6t-70.5 3q-29 0 -71.5 -8t-70.5 -8q-48 0 -48 24 q0 13 10.5 20t25.5 12.5t30.5 15t26 33.5t10.5 61v82q0 68 -0.5 199.5t-0.5 301.5q0 22 -8.5 28.5t-29.5 6.5h-84q-19 0 -28.5 5.5t-11 11t-1.5 14.5zM365 883q0 -17 12 -22q20 -7 197 -7h171q14 0 18 9t4 33q0 83 13.5 153t30.5 105l31 64q13 28 13 38q0 29 -72.5 78 t-116.5 49q-88 0 -157.5 -68.5t-106.5 -182t-37 -249.5z" />
<glyph unicode="ffl" horiz-adv-x="1655" d="M58 807q0 32 11 42t58 10q5 0 28 -0.5t32 -0.5q25 0 30 7t5 31q0 100 39 202t105 184t161.5 133.5t200.5 51.5q57 0 109 -20.5t84.5 -41.5t41.5 -21q5 0 9.5 2.5t12 10t12.5 11.5q129 101 237 101q17 0 50 -0.5t38 -0.5q27 0 53 18.5t49 18.5t23 -60q0 -9 -1 -45t-2 -103 t-1 -149v-115q0 -46 -1.5 -99t-1.5 -131q0 -47 3 -234.5t3 -234.5q0 -116 2.5 -172t4.5 -65t9 -23q14 -29 41 -43.5t51 -16t42.5 -9t18.5 -25.5q0 -16 -9.5 -21.5t-38.5 -5.5q-18 0 -95 3t-111 3q-54 0 -94 -3t-56 -3q-15 0 -24.5 7t-9.5 13q0 14 12 21.5t29.5 14.5 t34.5 18.5t29 41t12 74.5q0 440 -2.5 691t-2.5 434q0 34 -14 55.5t-39.5 30t-43.5 11t-43 2.5q-29 0 -62.5 -11t-55.5 -28q-67 -51 -95.5 -181.5t-28.5 -263.5q0 -65 11 -65q4 0 58 1.5t68 1.5q49 0 77 10.5t43.5 21t34.5 10.5q8 0 8 -16q0 -28 -23 -68t-46 -40 q-44 0 -87.5 0.5t-111.5 0.5q-19 0 -25 -15q-13 -32 -14 -282v-218q0 -81 15 -128t33.5 -61t45.5 -18q3 -1 12 -2t12.5 -2t11 -2.5t11 -2.5t9.5 -3.5t8.5 -4.5t6.5 -5.5t5.5 -7t3 -8.5t1.5 -11q0 -5 -1 -8t-6 -5.5t-15 -2.5q-1 0 -40.5 2.5t-87 4.5t-68.5 2q-36 0 -101 -6 t-71 -6q-19 0 -29.5 9t-10.5 23q0 17 11.5 22.5t28.5 7.5t33.5 8t28 31t11.5 69q0 6 -0.5 62t-0.5 112v82q0 32 -0.5 150t-0.5 194q0 16 -6.5 20t-24.5 4q-55 0 -117.5 -2t-83.5 -2q-19 0 -63 -0.5t-67 -0.5q-29 0 -29 -30v-239q0 -30 1 -78t1 -67v-115q0 -76 6 -105t24 -57 q10 -15 77 -33t67 -34q0 -9 -8.5 -16.5t-19.5 -7.5q-1 0 -44.5 0.5t-95 1.5t-72.5 1q-32 0 -72 -6t-67 -6q-49 0 -49 34q0 22 30 29q5 1 17.5 2.5t18.5 2.5t16 7.5t14.5 17t8.5 30t4 47.5v82q0 68 -0.5 199.5t-0.5 301.5q0 18 -9 24.5t-29 6.5h-87q-17 0 -26.5 7t-10.5 12.5 t-1 15.5zM367 886q0 -17 4.5 -22.5t19.5 -5.5h87h118h71q22 0 34 0.5t17 0.5h9q21 0 29 6t8 31q0 78 14 148.5t30 109.5l31 69q14 31 14 41q0 18 -36.5 46.5t-86.5 50.5t-84 22q-44 0 -71.5 -15t-63.5 -50q-64 -63 -104 -173.5t-40 -258.5z" />
<glyph unicode="fj" horiz-adv-x="1070" d="M60 798q0 53 45 53q9 0 42 -1t41 -1q25 0 33.5 11.5t8.5 35.5q0 122 32 225t84.5 172.5t120 118.5t138 71.5t139.5 22.5q71 0 99.5 -25t28.5 -54q0 -18 -16 -77.5t-36 -59.5q-7 0 -13 7l-17 19q-10 13 -24 23q-26 18 -40.5 26.5t-50.5 19.5t-75 11q-71 0 -116 -50 q-47 -52 -82.5 -175t-35.5 -281q0 -29 9.5 -35.5t53.5 -6.5q10 0 50 -0.5t71 -0.5q86 0 149 8.5t89.5 19t50.5 19t42 8.5q19 0 23.5 -13.5t4.5 -48.5q0 -19 -6 -106t-6 -155v-507q0 -63 -7 -124.5t-26 -127.5t-48.5 -116t-78 -82t-110.5 -32q-81 0 -81 56q0 12 -1.5 37 t-1.5 36q0 59 45 59q22 0 62 -43.5t55 -43.5q18 0 28 28t15.5 100.5t5.5 201.5v637q0 20 -1 33.5t-7 31t-17 27.5t-32 17.5t-50 7.5q-66 0 -139.5 2.5t-84.5 2.5q-31 0 -42 -5t-11 -21q-11 -275 -11 -368q0 -18 0.5 -76t0.5 -109t13 -84t33 -45t43 -19t43 -8t33 -9.5 t13 -26.5q0 -6 -12.5 -12.5t-27.5 -6.5q-1 0 -38 2t-82 4t-66 2q-37 0 -89 -2.5t-66 -2.5q-21 0 -29 1t-14 6.5t-6 17.5q0 14 17.5 20.5t38.5 11t38.5 30.5t17.5 73v83q0 67 0.5 198.5t0.5 301.5q0 23 -4 28t-24 5q-9 0 -39.5 0.5t-49.5 0.5q-28 0 -36 6t-8 22z" />
<glyph unicode="ffj" horiz-adv-x="1611" d="M58 807q0 31 11 40.5t58 9.5h60q25 0 31.5 8t6.5 31q0 116 43.5 223t114 182.5t162 120.5t183.5 45q61 0 115 -23.5t84 -46.5t32 -23q4 0 29.5 21.5t59 47t89.5 47t113 21.5q156 0 156 -69q0 -36 -15 -87t-34 -51q-9 0 -26 16l-36 34q-19 19 -58 34.5t-86 15.5 q-246 0 -246 -527q0 -14 3 -18t14 -4q16 0 44 -0.5t40 -0.5q78 0 157 3t102 3q42 0 71 13.5t47.5 27t37.5 13.5q24 0 24 -40q0 -5 -3.5 -63.5t-3.5 -74.5v-664q0 -63 -7 -124.5t-26 -127.5t-48.5 -116t-78 -82t-110.5 -32q-81 0 -81 56q0 12 -1.5 37t-1.5 36q0 59 45 59 q22 0 62 -43.5t55 -43.5q30 0 38 76.5t8 334.5q0 28 1.5 133.5t1.5 185.5v242q0 29 -2.5 47t-12.5 31.5t-20.5 20t-37.5 10.5t-52.5 4.5t-74.5 0.5q-44 0 -68.5 -1t-92.5 -1q-19 0 -25 -14q-9 -24 -9 -213q0 -32 1.5 -128.5t1.5 -183.5q0 -49 5.5 -83t16.5 -52.5t22.5 -27.5 t28.5 -15q15 -5 43.5 -10t42 -10.5t13.5 -15.5q0 -15 -4.5 -20t-20.5 -5q-28 0 -117 3.5t-91 3.5q-16 0 -55 -5t-90 -5q-47 0 -47 25q0 17 29 24q43 10 52 18q24 19 28 111q3 54 3 178q0 39 -0.5 166.5t-0.5 219.5q0 19 -1.5 26t-9 12t-25.5 5q-82 0 -116 -2t-214 -2 q-17 0 -23.5 -6t-6.5 -20q0 -256 -0.5 -343t-0.5 -156q0 -51 6 -83.5t13.5 -46t23.5 -34.5q9 -12 43.5 -22t62.5 -20t28 -23q0 -9 -8.5 -17t-19.5 -8q-1 0 -42.5 2.5t-91 5t-70.5 2.5q-18 0 -70 -7.5t-74 -7.5q-46 0 -46 25q0 13 10.5 20t25.5 12.5t30.5 15t26 33.5t10.5 61 v82q0 68 -0.5 199.5t-0.5 301.5q0 22 -8.5 28.5t-29.5 6.5h-84q-19 0 -28.5 5.5t-11 11t-1.5 14.5zM365 883q0 -18 16 -23.5t70 -5.5q17 0 113.5 1.5t180.5 1.5q14 0 18 8t4 31q0 83 13.5 153t30.5 105l31 64q13 28 13 38q0 29 -72.5 78t-116.5 49q-88 0 -157.5 -68.5 t-106.5 -182t-37 -249.5z" />
<glyph unicode="fb" horiz-adv-x="1713" d="M58 798q0 38 15 49t65 11q15 0 42.5 -0.5t32.5 -0.5q16 0 16 29q0 121 33 226t84 175t114 120.5t121.5 73.5t107.5 23q15 0 49.5 -2.5t43.5 -2.5q38 0 67 18.5t49 18.5q21 0 21 -50q0 -11 -1 -24.5t-2.5 -46.5t-3 -94t-2.5 -195.5t-1 -322.5q0 -19 3 -26.5t12 -7.5 q7 0 18 14t31 34t50.5 40t86 34t127.5 14q82 0 150 -25.5t113 -67.5t75.5 -98t44 -114t13.5 -118q0 -59 -19 -133.5t-63.5 -155t-104.5 -125.5q-120 -91 -285 -91q-53 0 -102 12.5t-82 29.5t-58 34.5t-40 30t-18 12.5q-8 0 -23 -32.5t-35.5 -65t-42.5 -32.5q-15 0 -20 5.5 t-5 19.5q0 30 4.5 98t4.5 70q0 69 9 242t9 299q0 88 0.5 298t0.5 260q0 41 -12 70t-26.5 43t-38.5 21.5t-37.5 8.5t-34.5 1q-57 0 -102 -34q-69 -52 -104.5 -187.5t-35.5 -257.5q0 -68 10 -68q42 0 72.5 1t55.5 1q46 0 74.5 10t43.5 19.5t29 9.5q15 0 15 -15 q0 -22 -27.5 -62.5t-58.5 -40.5q-44 0 -80.5 0.5t-104.5 0.5q-14 0 -23 -8.5t-9 -21.5q0 -2 -1 -76.5t-2 -177.5t-1 -174v-56q0 -144 35 -183q20 -22 79 -34q4 -1 11 -2l12 -3q22 -5 27.5 -13t5.5 -21q0 -5 -1 -8t-6 -5.5t-15 -2.5q-1 0 -30.5 3.5t-67.5 7t-59 3.5 q-36 0 -115.5 -8.5t-85.5 -8.5q-15 0 -27.5 8.5t-12.5 23.5q0 18 36 27t44 19q28 34 28 112q0 15 -0.5 76t-1 185.5t-0.5 294.5q0 27 -5.5 34.5t-27.5 7.5q-9 0 -36.5 -1t-46.5 -1q-29 0 -38 5.5t-9 16.5zM909 271q0 -20 18.5 -54.5t52 -72.5t94.5 -65.5t134 -27.5 q95 0 162.5 47t98 119.5t30.5 161.5q0 76 -24 149t-68 133t-114.5 97t-154.5 37q-95 0 -164 -58q-41 -34 -53 -54t-12 -41v-371z" />
<glyph unicode="ffb" horiz-adv-x="2243" d="M58 807q0 32 11 42t58 10q5 0 28 -0.5t32 -0.5q25 0 30 7t5 31q0 100 39 202t105 184t161.5 133.5t200.5 51.5q57 0 109 -20.5t84.5 -41.5t41.5 -21q5 0 9.5 2.5t12 10t12.5 11.5q129 101 237 101q17 0 50 -0.5t38 -0.5q27 0 53 18.5t49 18.5t23 -60v-4q-8 -69 -8 -639 q0 -73 15 -73q8 0 17.5 14t27.5 34t48 40t90 34t141 14q75 0 139 -24t108.5 -65t76 -95.5t46.5 -115t15 -123.5q0 -59 -19 -133.5t-63.5 -155t-104.5 -125.5q-120 -91 -285 -91q-53 0 -102 12.5t-82 29.5t-58 34.5t-40 30t-18 12.5q-8 0 -23 -32.5t-35.5 -65t-42.5 -32.5 q-15 0 -20 5.5t-5 19.5q0 30 4.5 98t4.5 70q0 69 9 242t9 299v338q0 51 -1.5 125t-1.5 145q0 34 -14 55.5t-39.5 30t-43.5 11t-43 2.5q-29 0 -62.5 -11t-55.5 -28q-67 -51 -95.5 -181.5t-28.5 -263.5q0 -65 11 -65q4 0 58 1.5t68 1.5q49 0 77 10.5t43.5 21t34.5 10.5 q8 0 8 -16q0 -28 -23 -68t-46 -40q-44 0 -87.5 0.5t-111.5 0.5q-19 0 -25 -15q-13 -32 -14 -282v-218q0 -81 15 -128t33.5 -61t45.5 -18q3 -1 12 -2t12.5 -2t11 -2.5t11 -2.5t9.5 -3.5t8.5 -4.5t6.5 -5.5t5.5 -7t3 -8.5t1.5 -11q0 -5 -1 -8t-6 -5.5t-15 -2.5q-1 0 -40.5 2.5 t-87 4.5t-68.5 2q-36 0 -101 -6t-71 -6q-19 0 -29.5 9t-10.5 23q0 17 11.5 22.5t28.5 7.5t33.5 8t28 31t11.5 69q0 6 -0.5 62t-0.5 112v82q0 32 -0.5 148t-0.5 193q0 16 -6.5 20t-24.5 4q-55 0 -117.5 -0.5t-83.5 -0.5q-19 0 -63 -0.5t-67 -0.5q-29 0 -29 -30v-239 q0 -30 1 -78t1 -67v-115q0 -76 6 -105t24 -57q10 -15 77 -33t67 -34q0 -9 -8.5 -16.5t-19.5 -7.5q-1 0 -44.5 0.5t-95 1.5t-72.5 1q-31 0 -70 -6t-69 -6q-49 0 -49 34q0 22 30 29q5 1 17.5 2.5t18.5 2.5t16 7.5t14.5 17t8.5 30t4 47.5v82q0 68 -0.5 199.5t-0.5 301.5 q0 18 -9 24.5t-29 6.5h-60q-41 0 -53 6t-12 29zM367 886q0 -17 4.5 -22.5t19.5 -5.5h340q13 0 19 1.5t10 9.5t4 24q0 78 14 149t30 110l31 70q14 32 14 42q0 18 -36.5 46.5t-86.5 50.5t-84 22q-44 0 -71.5 -15t-63.5 -50q-64 -63 -104 -173.5t-40 -258.5zM1439 271 q0 -20 18.5 -54.5t52 -72.5t94.5 -65.5t134 -27.5q95 0 162.5 47t98 119.5t30.5 161.5q0 76 -24 149t-68 133t-114.5 97t-154.5 37q-95 0 -164 -58q-41 -34 -53 -54t-12 -41v-371z" />
<glyph unicode="fh" horiz-adv-x="1770" d="M58 798q0 38 15 49t65 11q15 0 42.5 -0.5t32.5 -0.5q16 0 16 29q0 121 33 226t84 175t114 120.5t121.5 73.5t107.5 23q15 0 49.5 -2.5t43.5 -2.5q38 0 67 18.5t49 18.5q21 0 21 -50q0 -2 -12.5 -353.5t-12.5 -354.5q0 -40 19 -40q5 0 30 24l57 52q32 28 87 51.5t114 23.5 q165 0 257.5 -99t92.5 -305v-296q0 -14 2.5 -31t9.5 -37t21.5 -34.5t34.5 -16.5q110 -11 110 -44q0 -32 -64 -32q-10 0 -79 5t-92 5q-18 0 -85 -3t-73 -3q-47 0 -47 20q0 18 11.5 25.5t27.5 9.5t32 7.5t27.5 26.5t11.5 60q0 8 0.5 20.5t1.5 33.5t1.5 95t0.5 191 q0 125 -76 216.5t-178 91.5q-92 0 -198 -81q-26 -20 -37 -51.5t-15.5 -102t-4.5 -225.5v-46q0 -93 15 -149t66 -78q14 -6 34.5 -9t34.5 -3.5t24.5 -6.5t10.5 -19q0 -9 -6.5 -16.5t-15.5 -7.5q-1 0 -53 2l-106 6q-54 2 -59 2q-14 0 -72 -5t-74 -5q-27 0 -39.5 3t-13.5 5.5 t-2 11.5q0 20 25 28q58 17 75.5 52.5t17.5 104.5l8 699q0 21 0.5 53t0.5 46q0 21 -1 111.5t-1 143.5q0 41 -12 70t-26.5 43t-38.5 21.5t-37.5 8.5t-34.5 1q-57 0 -102 -34q-69 -52 -104.5 -187.5t-35.5 -257.5q0 -68 10 -68q42 0 72.5 1t55.5 1q46 0 74.5 10t43.5 19.5 t29 9.5q15 0 15 -15q0 -22 -27.5 -62.5t-58.5 -40.5q-44 0 -80.5 0.5t-104.5 0.5q-14 0 -23 -8.5t-9 -21.5q0 -2 -1 -76.5t-2 -177.5t-1 -174v-56q0 -144 35 -183q20 -22 79 -34q4 -1 11 -2l12 -3q22 -5 27.5 -13t5.5 -21q0 -5 -1 -8t-6 -5.5t-15 -2.5q-1 0 -30.5 3.5 t-67.5 7t-59 3.5q-36 0 -115.5 -7.5t-85.5 -7.5q-40 0 -40 27q0 21 36 30t44 19q28 34 28 112q0 15 -0.5 76t-1 185.5t-0.5 294.5q0 27 -5.5 34.5t-27.5 7.5q-9 0 -36.5 -1t-46.5 -1q-29 0 -38 5.5t-9 16.5z" />
<glyph unicode="ffh" horiz-adv-x="2307" d="M58 807q0 32 11 42t58 10q5 0 28 -0.5t32 -0.5q25 0 30 7t5 31q0 100 39 202t105 184t161.5 133.5t200.5 51.5q57 0 109 -20.5t84.5 -41.5t41.5 -21q5 0 9.5 2.5t12 10t12.5 11.5q129 101 237 101q17 0 50 -0.5t38 -0.5q27 0 53 18.5t49 18.5t23 -60v-53 q0 -104 -5 -375.5t-11 -274.5q0 -44 19 -44q5 0 30 24l57 52q32 28 87 51.5t114 23.5q165 0 257.5 -99t92.5 -305v-296q0 -14 2.5 -31t9.5 -37t21.5 -34.5t34.5 -16.5q110 -11 110 -44q0 -32 -64 -32q-10 0 -79 5t-92 5q-18 0 -85 -3t-73 -3q-47 0 -47 20q0 18 11.5 25.5 t27.5 9.5t32 7.5t27.5 26.5t11.5 60q0 8 0.5 20.5t1.5 33.5t1.5 95t0.5 191q0 125 -76 216.5t-178 91.5q-73 0 -156 -51t-91 -109q-8 -61 -8 -300v-46q0 -93 15 -149t66 -78q14 -6 34.5 -9t34.5 -3.5t24.5 -6.5t10.5 -19q0 -9 -6.5 -16.5t-15.5 -7.5q-1 0 -53 2l-106 6 q-54 2 -59 2q-14 0 -72 -5t-74 -5q-27 0 -39.5 3t-13.5 5.5t-2 11.5q0 20 25 28q58 17 75.5 52.5t17.5 104.5q4 399 4 640q0 316 -5 403q-2 35 -3 60q-2 34 -16 55.5t-39 30t-42.5 11t-42.5 2.5q-29 0 -62.5 -11t-55.5 -28q-67 -51 -95.5 -181.5t-28.5 -263.5q0 -65 11 -65 q4 0 58 1.5t68 1.5q47 0 77.5 11t46.5 22t27 11q12 0 12 -16q0 -28 -22.5 -69t-46.5 -41q-44 0 -87.5 0.5t-111.5 0.5q-19 0 -25 -15q-13 -32 -14 -282v-218q0 -81 15 -128t33.5 -61t45.5 -18q3 -1 12 -2t12.5 -2t11 -2.5t11 -2.5t9.5 -3.5t8.5 -4.5t6.5 -5.5t5.5 -7t3 -8.5 t1.5 -11q0 -5 -1 -8t-6 -5.5t-15 -2.5q-1 0 -40.5 2.5t-87 4.5t-68.5 2q-36 0 -101 -6t-71 -6q-19 0 -29.5 9t-10.5 23q0 17 11.5 22.5t28.5 7.5t33.5 8t28 31t11.5 69q0 6 -0.5 62t-0.5 112v82q0 32 -0.5 150t-0.5 194q0 16 -6.5 20t-24.5 4q-55 0 -117.5 -2t-83.5 -2 q-19 0 -63 -0.5t-67 -0.5q-29 0 -29 -30v-239q0 -30 1 -78t1 -67v-115q0 -76 6 -105t24 -57q8 -13 44.5 -20t68 -17t31.5 -30q0 -9 -8.5 -16.5t-19.5 -7.5q-1 0 -44.5 0.5t-95 1.5t-72.5 1q-25 0 -61 -4t-71 -4q-33 0 -44.5 4t-11.5 23q0 22 30 29q4 1 17 2.5t19 3t16 8.5 t14.5 17.5t8.5 30.5t4 48v82q0 68 -0.5 199.5t-0.5 301.5q0 18 -9 24.5t-29 6.5h-87q-17 0 -26.5 7t-10.5 12.5t-1 15.5zM367 886q0 -17 4.5 -22.5t19.5 -5.5h87h118h71q22 0 34 0.5t17 0.5h9q21 0 29 6t8 31q0 78 14 148.5t30 109.5l31 69q14 31 14 41q0 18 -36.5 46.5 t-86.5 50.5t-84 22q-44 0 -71.5 -15t-63.5 -50q-64 -63 -104 -173.5t-40 -258.5z" />
<glyph unicode="fk" horiz-adv-x="1700" d="M58 798q0 42 14 51.5t64 9.5h64q17 0 23 5.5t6 23.5q0 121 33 225.5t84 174.5t114 120t121.5 73t107.5 23q15 0 49.5 -2.5t43.5 -2.5q38 0 67 18.5t49 18.5q21 0 21 -50q0 -36 -7.5 -425.5t-7.5 -478.5v-43q0 -86 8 -86q13 0 22.5 6t22.5 19.5t21 20.5q287 228 287 261 q0 17 -14.5 28.5t-31.5 16.5t-31.5 14t-14.5 21q0 20 25 20q82 0 212 4t134 4q45 0 45 -18q0 -14 -13 -21t-34 -10t-62 -19t-83 -44q-18 -12 -70 -52q-195 -149 -209 -162q-14 -14 -14 -29q0 -21 21 -47q192 -233 320 -344q44 -38 88.5 -55.5t70.5 -17t42 -3.5t16 -20 q0 -24 -17.5 -30t-65.5 -6q-14 0 -108.5 2t-104.5 2q-17 0 -54.5 32.5t-87.5 89.5l-90 103l-89 107l-57 71q-10 12 -23 12q-24 0 -43.5 -31t-19.5 -62q0 -7 2 -35q7 -145 11 -158q1 -5 19 -28q3 -5 7 -10q12 -19 47 -27l60 -16q27 -6 27 -22q0 -27 -63 -27q-4 0 -72 3 t-107 3q-26 0 -60 -4t-82 -4q-49 0 -49 25q0 12 14 20t32 12t35.5 17t22.5 34q11 44 11 140q0 22 1 53.5t1 37.5l2 867q0 23 1 46t1 27q0 132 -144 132q-61 0 -107 -34q-69 -52 -104.5 -187.5t-35.5 -257.5q0 -68 10 -68q141 0 184 6q10 1 44.5 18t46.5 17q15 0 15 -15 q0 -22 -27.5 -62.5t-58.5 -40.5q-44 0 -80.5 0.5t-104.5 0.5q-14 0 -23 -8.5t-9 -21.5q0 -2 -1 -76.5t-2 -177.5t-1 -174v-56q0 -57 5 -94t13 -59t24 -34t33 -17t45 -11q11 -2 17 -3q33 -7 33 -38q0 -5 -1 -8t-6 -5.5t-15 -2.5q-1 0 -30.5 2.5t-67.5 5t-59 2.5 q-36 0 -115.5 -6.5t-85.5 -6.5q-15 0 -27.5 8.5t-12.5 23.5q0 18 36 27t44 19q28 34 28 112q0 15 -0.5 76t-1 185.5t-0.5 294.5q0 23 -9 32.5t-29 9.5q-9 0 -34 -1t-44 -1q-29 0 -38 5.5t-9 16.5z" />
<glyph unicode="ffk" horiz-adv-x="2233" d="M58 807q0 32 11 42t58 10q5 0 28 -0.5t32 -0.5q25 0 30 7t5 31q0 100 39 202t105 184t161.5 133.5t200.5 51.5q57 0 109 -20.5t84.5 -41.5t41.5 -21q5 0 9.5 2.5t12 10t12.5 11.5q129 101 237 101q17 0 50 -0.5t38 -0.5q27 0 53 18.5t49 18.5t23 -60q0 -3 -1 -46.5 t-2 -156t-1 -283.5q0 -69 -3 -209t-3 -210v-43q0 -86 8 -86q13 0 22 6t22.5 19.5t21.5 20.5q287 228 287 261q0 17 -14.5 28.5t-31.5 16.5t-31.5 14t-14.5 21q0 20 25 20q85 0 188.5 4t141.5 4q36 0 48.5 -3.5t12.5 -14.5q0 -14 -12.5 -20.5t-32.5 -9.5t-59 -18t-80 -41 q-20 -13 -97 -71q-178 -135 -193 -152q-11 -11 -11 -25q0 -21 21 -47q192 -233 320 -344q44 -38 88.5 -55.5t70.5 -17t42 -3.5t16 -20q0 -23 -17 -28.5t-66 -5.5q-14 0 -108.5 1t-104.5 1q-17 0 -54.5 32.5t-87.5 89.5l-90 103l-89 107l-57 71q-11 12 -23 12q-21 0 -42 -28 t-21 -65q0 -7 2 -35q2 -32 3 -66t1.5 -47t1.5 -27.5t5 -21.5l8 -15q5 -7 16 -19q17 -19 54 -28.5t64.5 -15.5t27.5 -21q0 -18 -19 -25t-34 -7q-4 0 -82 5.5t-117 5.5q-26 0 -61 -4t-83 -4q-49 0 -49 25q0 14 15 22.5t22 8.5q13 0 38.5 18t30.5 39q13 53 13 226q2 740 2 926 q0 89 -29.5 121t-115.5 32q-29 0 -62.5 -11t-55.5 -28q-67 -51 -95.5 -181.5t-28.5 -263.5q0 -65 11 -65q4 0 58 1.5t68 1.5q49 0 77 10.5t43.5 21t34.5 10.5q8 0 8 -16q0 -28 -23 -68t-46 -40q-44 0 -87.5 0.5t-111.5 0.5q-19 0 -25 -15q-13 -32 -14 -282v-218 q0 -81 15 -128t33.5 -61t45.5 -18q3 -1 12 -2t12.5 -2t11 -2.5t11 -2.5t9.5 -3.5t8.5 -4.5t6.5 -5.5t5.5 -7t3 -8.5t1.5 -11q0 -5 -1 -8t-6 -5.5t-15 -2.5q-1 0 -40.5 2.5t-87 4.5t-68.5 2q-36 0 -101 -6t-71 -6q-19 0 -29.5 9t-10.5 23q0 17 11.5 22.5t28.5 7.5t33.5 8 t28 31t11.5 69q0 6 -0.5 62t-0.5 112v82q0 32 -0.5 150t-0.5 194q0 16 -6.5 20t-24.5 4q-55 0 -117.5 -2t-83.5 -2q-19 0 -63 -0.5t-67 -0.5q-29 0 -29 -30v-239q0 -30 1 -78t1 -67v-115q0 -76 6 -105t24 -57q10 -15 77 -33t67 -34q0 -9 -8.5 -16.5t-19.5 -7.5 q-1 0 -44.5 0.5t-95 1.5t-72.5 1q-30 0 -67 -6t-72 -6q-49 0 -49 34q0 22 30 29q5 1 17.5 2.5t18.5 2.5t16 7.5t14.5 17t8.5 30t4 47.5v82q0 68 -0.5 199.5t-0.5 301.5q0 18 -9 24.5t-29 6.5h-87q-17 0 -26.5 7t-10.5 12.5t-1 15.5zM367 886q0 -17 4.5 -22.5t19.5 -5.5h87 h118h71q22 0 34 0.5t17 0.5h9q21 0 29 6t8 31q0 78 14 148.5t30 109.5l31 69q14 31 14 41q0 18 -36.5 46.5t-86.5 50.5t-84 22q-44 0 -71.5 -15t-63.5 -50q-64 -63 -104 -173.5t-40 -258.5z" />
<glyph unicode=" "  horiz-adv-x="437" />
<glyph unicode="&#x09;" horiz-adv-x="437" />
<glyph unicode="&#xa0;" horiz-adv-x="437" />
<glyph unicode="!" horiz-adv-x="566" d="M140 130q0 5 2.5 10.5t9 12.5t12.5 12l17 14l18 15q8 7 25 29t33 35.5t33 13.5q5 0 9.5 -1.5t10.5 -6.5l8 -6q3 -3 10 -11t10 -11q22 -23 45.5 -42.5t35 -27.5t19.5 -18t8 -22q0 -16 -14 -30t-35.5 -28.5t-28.5 -21.5q-8 -8 -23 -28.5t-28 -32t-25 -11.5q-13 0 -41 23 t-44 45q-6 8 -24.5 24t-30.5 32t-12 32zM200 1334q0 36 27.5 57t74.5 21q48 0 70.5 -14.5t22.5 -52.5q0 -7 -1 -15t-4 -26.5t-5 -37.5q-9 -73 -25.5 -333t-46.5 -503q-3 -22 -28 -22q-23 0 -25 19q-18 211 -27 335t-10 154.5t-1.5 59.5t-2.5 62q-3 48 -8.5 112.5t-8 102.5 t-2.5 81z" />
<glyph unicode="&#x22;" horiz-adv-x="940" d="M515 1329q0 3 1.5 7t4.5 8.5t6 8.5t9 10.5t10 10t12 11.5l12 12q4 4 21 25t30.5 30t29.5 9q6 0 20.5 -7.5t35 -25.5t39 -43.5t31.5 -66t13 -87.5q0 -70 -19.5 -132t-47.5 -101.5t-60 -69t-57 -42t-39 -12.5q-11 0 -18.5 9.5t-7.5 16.5q0 12 18 28t39 32.5t39 55.5t18 91 q0 45 -14.5 78t-35 50t-41 30t-35 28.5t-14.5 35.5zM115 1329q0 3 1.5 7t4.5 8.5t6 8.5t9 10.5t10 10t12 11.5l12 12q4 4 21 25t30.5 30t29.5 9q6 0 20.5 -7.5t35 -25.5t39 -43.5t31.5 -66t13 -87.5q0 -70 -19.5 -132t-47.5 -101.5t-60 -69t-57 -42t-39 -12.5 q-11 0 -18.5 9.5t-7.5 16.5q0 12 18 28t39 32.5t39 55.5t18 91q0 45 -14.5 78t-35 50t-41 30t-35 28.5t-14.5 35.5z" />
<glyph unicode="#" horiz-adv-x="1092" d="M120 284v6q0 17 1.5 25t8 13.5t20.5 5.5h168q6 0 6 4q38 269 38 276q0 10 -14 10h-194q-18 0 -26 8.5t-8 33.5q0 23 7.5 33.5t26.5 10.5h208q16 0 18 16q29 204 46 342q5 39 8 44q10 15 46 15q40 0 40 -25q0 -7 -27 -191.5t-27 -190.5q0 -10 14 -10h200q16 0 18 14 q54 382 56 386l2 4q9 13 46 13q34 0 34 -21q0 -10 -26 -193t-26 -193t10 -10h142q21 0 28.5 -11.5t7.5 -38.5q0 -22 -7 -29t-23 -7h-166q-6 0 -10 -12q-36 -264 -36 -266q0 -12 14 -12h194q18 0 26 -8.5t8 -33.5q0 -24 -7 -34t-27 -10h-200q-13 0 -17.5 -5t-6.5 -16 l-24 -181q-19 -145 -29 -165q-17 -17 -41 -17q-38 0 -38 27q0 7 23 173.5t23 171.5q0 12 -14 12h-134q-40 0 -57 -1.5t-21.5 -4.5t-5.5 -10q-47 -346 -50 -351q-10 -17 -48 -17q-36 0 -36 27q0 6 24 172t24 171q0 14 -18 14h-142q-19 0 -24.5 9t-5.5 27zM412 344 q0 -10 16 -10h194q20 0 22 15q36 259 36 265q0 9 -12 10h-202q-15 0 -18 -13q-36 -264 -36 -267z" />
<glyph unicode="$" horiz-adv-x="1091" d="M132 197q0 11 3 39.5t14.5 65.5t29.5 37q20 0 32 -13.5t32 -58t32 -66.5q32 -58 99.5 -102t124.5 -44q22 0 22 31q0 131 2.5 295t2.5 282q0 28 -74 51q-42 14 -76.5 29.5t-72.5 43.5t-64 62.5t-43 86.5t-17 115q0 145 100.5 248t237.5 120q10 1 14.5 4t8 13t3.5 30 q0 12 -1 28.5t-1 27.5q0 26 9.5 36.5t34.5 10.5q29 0 37 -8t8 -29q0 -24 -0.5 -45t-1 -33t-0.5 -14q0 -18 10 -19q66 -8 120.5 -28t86 -42t53 -46t29.5 -39.5t8 -21.5q0 -30 -21 -80.5t-39 -50.5q-19 0 -28 22q-34 76 -92.5 138t-114.5 62q-19 0 -19 -39q0 -173 -5 -266.5 t-5 -134.5q0 -33 4 -43t21 -15q186 -52 274.5 -148.5t88.5 -261.5q0 -83 -23.5 -152.5t-59.5 -116t-86 -83t-95 -56.5t-94 -33l-12 -3q-22 -5 -26.5 -10t-4.5 -26v-39q0 -23 0.5 -65.5t0.5 -64.5q0 -55 -9 -70.5t-37 -15.5q-18 0 -28 6.5t-12.5 15t-2.5 21.5q0 36 3 108 t3 94q0 38 -12 38q-96 0 -201 46.5t-150 101.5q-21 25 -21 74zM299 1103q0 -171 215 -226q1 0 2.5 -0.5t2.5 -0.5q17 0 17 35q0 90 1 203t1 198q0 25 -21 25q-14 0 -38.5 -8t-56 -26.5t-59 -44t-46 -66.5t-18.5 -89zM600 81q0 -25 15 -25q6 0 19 2t38.5 10t51 21t53.5 38 t49.5 57.5t35.5 83t14 110.5q0 63 -26 114.5t-61.5 80.5t-74.5 48.5t-63 26.5t-29 7q-14 0 -14 -28q0 -109 -4 -273t-4 -273z" />
<glyph unicode="%" horiz-adv-x="1578" d="M120 705q0 76 30 159t81.5 154t130.5 117.5t167 46.5q42 0 77.5 -14.5t60.5 -35.5l49 -42q24 -21 54.5 -35.5t65.5 -14.5q34 0 72 11t76 32.5t71 43t70 51.5l59 50l50 46q29 28 34 32q18 17 36 17q19 0 19 -18q0 -20 -17 -44l-897 -1365l-43 -66q-7 -11 -14 -13 q-14 -4 -21 -4q-25 0 -45.5 16.5t-20.5 33.5q0 5 0.5 9.5t2.5 10t4 9.5t6.5 12t7.5 14l12 16l12 20l18 24l19 28l338 486l218 306l153 210q42 59 42 66t-8 7q-3 0 -41 -22.5t-96.5 -44.5t-113.5 -22q-22 0 -45 5t-37.5 10t-16.5 5t-2 -3q0 -1 1.5 -13t1.5 -25 q0 -115 -21.5 -189t-83.5 -167q-21 -32 -43.5 -56.5t-57.5 -51.5t-83.5 -42t-105.5 -15q-30 0 -66.5 15t-73.5 44t-61.5 80.5t-24.5 115.5zM268 746q0 -113 32.5 -176.5t90.5 -63.5q67 0 118.5 68.5t75.5 164.5t24 195q0 81 -27 134.5t-71 53.5q-78 0 -135 -58.5t-82.5 -142 t-25.5 -175.5zM790 131q0 65 17.5 131t52.5 126.5t83 108t114 75.5t140 28q111 0 166 -70t55 -182q0 -83 -29.5 -172.5t-78.5 -164t-121 -122.5t-150 -48q-120 0 -184.5 83t-64.5 207zM936 150q0 -113 33 -179t90 -66q62 0 115 69.5t80.5 168t27.5 195.5q0 81 -29.5 139.5 t-73.5 58.5q-78 0 -135 -61.5t-82.5 -147t-25.5 -177.5z" />
<glyph unicode="&#x26;" horiz-adv-x="1939" d="M120 496q0 69 23.5 144.5t59.5 119.5q31 38 68.5 65.5t68 40t57 20.5t41.5 12t15 8q0 7 -15 28l-34 46q-19 26 -34.5 77.5t-15.5 112.5q0 70 36 124.5t94.5 85t123.5 46t132 15.5q53 0 96.5 -11.5t70 -23.5t39.5 -12q8 0 22.5 3t23.5 3q33 0 33 -47q0 -2 1 -27l4 -58 q2 -33 2 -53q0 -61 -3 -73t-19 -12q-11 0 -32 24l-49 60q-28 34 -62 68.5t-81.5 59t-97.5 24.5q-51 0 -90 -16t-59.5 -41t-30.5 -50.5t-10 -49.5q0 -31 20.5 -73.5t49 -81.5t79 -95l88.5 -95l99 -99q154 -152 297 -275.5t162 -123.5q13 0 24.5 18t20 58.5t8.5 95.5 q0 45 -7.5 79.5t-16 54t-27 36.5t-28.5 22.5t-33 16.5l-6 3q-12 6 -28 8.5t-26 3t-17 6t-7 18.5q0 15 9.5 18.5t42.5 3.5q42 0 95.5 -1.5t210.5 -1.5q38 0 38 -26q0 -14 -11.5 -21.5t-26 -11.5t-28 -24.5t-16.5 -57.5q-5 -64 -18 -162q-5 -40 -23.5 -85t-34.5 -75t-16 -36 q0 -19 122.5 -96t245.5 -138q43 -21 89 -21q14 0 39 3.5t35 3.5q26 0 26 -20q0 -34 -58 -55.5t-140 -21.5q-79 0 -153 21.5t-125.5 51.5t-90.5 60.5t-62.5 52t-27.5 21.5q-9 0 -31.5 -22t-62 -53.5t-95 -63t-148 -53.5t-202.5 -22q-44 0 -89 4t-107.5 18.5t-117.5 37.5 t-111.5 65t-96.5 97t-65.5 137.5t-25.5 182.5zM256 566q0 -56 20.5 -117.5t67.5 -125.5t113 -115t167 -83t220 -32q55 0 110.5 12t96 29t72.5 36t48.5 33.5t16.5 20.5q0 7 -53 48t-176 145t-251 231l-56 56l-46 46l-35 36l-27 28l-21 20l-15 15q-6 5 -11.5 8.5t-9 4.5 t-7.5 1q-29 0 -66 -21t-73 -57.5t-60.5 -95t-24.5 -123.5z" />
<glyph unicode="'" horiz-adv-x="540" d="M115 1329q0 3 1.5 7t4.5 8.5t6 8.5t9 10.5t10 10t12 11.5l12 12q4 4 21 25t30.5 30t29.5 9q6 0 20.5 -7.5t35 -25.5t39 -43.5t31.5 -66t13 -87.5q0 -70 -19.5 -132t-47.5 -101.5t-60 -69t-57 -42t-39 -12.5q-11 0 -18.5 9.5t-7.5 16.5q0 12 18 28t39 32.5t39 55.5t18 91 q0 45 -14.5 78t-35 50t-41 30t-35 28.5t-14.5 35.5z" />
<glyph unicode="(" horiz-adv-x="668" d="M150 570q0 132 23 259t59.5 225t82.5 185t92.5 148.5t88 106.5t70.5 66.5t39 21.5q43 0 43 -44q0 -11 -22 -34l-59 -61q-36 -37 -79 -88t-86.5 -127.5t-79.5 -167.5t-58.5 -219.5t-22.5 -272.5q0 -133 22 -255.5t57.5 -212.5t78.5 -168t85.5 -133t77.5 -95l58 -67 q22 -26 22 -36q0 -17 -14.5 -28t-27.5 -11q-18 0 -57 36t-89.5 98t-103.5 157t-98 202t-73.5 243.5t-28.5 271.5z" />
<glyph unicode=")" horiz-adv-x="668" d="M20 -394q0 11 22 34l59 61q36 37 79 88t86.5 127.5t79.5 167.5t58.5 219.5t22.5 272.5q0 133 -22 255.5t-57.5 212.5t-78.5 168t-85.5 133t-77.5 95l-58 67q-22 26 -22 36q0 17 14.5 28t27.5 11q18 0 57 -36t89.5 -98t103.5 -157t98 -202t73.5 -243.5t28.5 -271.5 q0 -132 -23 -259t-59.5 -225t-82.5 -185t-92.5 -148.5t-88 -106.5t-70.5 -66.5t-39 -21.5q-43 0 -43 44z" />
<glyph unicode="*" horiz-adv-x="883" d="M120 784q0 20 56 49t111.5 52.5t55.5 30.5q0 9 -55.5 33.5t-111.5 53.5t-56 48t20 45.5t47 26.5q18 0 98.5 -55t87.5 -55q9 0 9 39q0 20 -3 77t-3 85q0 26 11.5 35t43.5 9q48 0 61 -12t13 -62q0 -18 -3.5 -66t-3.5 -68q0 -37 9 -37q11 0 93.5 55.5t95.5 55.5 q25 0 46 -25.5t21 -45.5q0 -18 -55.5 -47.5t-111.5 -54.5t-56 -33q0 -9 56 -33.5t111.5 -52.5t55.5 -47q0 -20 -20.5 -46.5t-48.5 -26.5q-17 0 -98 55t-87 55q-10 0 -10 -40q0 -20 3 -62.5t3 -56.5q0 -58 -11 -72t-61 -14q-28 0 -42.5 10t-14.5 40q0 17 3 70t3 78 q0 47 -9 47q-8 0 -91 -55t-96 -55q-26 0 -46 26.5t-20 45.5z" />
<glyph unicode="+" horiz-adv-x="1080" d="M63 434q0 16 1.5 23t10 13t26.5 6h348q27 0 35.5 9.5t8.5 29.5v359q0 21 9 26.5t34 5.5q18 0 26.5 -1.5t16 -11t7.5 -28.5v-335q0 -26 6.5 -40t28.5 -14h362q23 0 28 -9t5 -34q0 -20 -2 -28.5t-11.5 -14t-29.5 -5.5h-352q-16 0 -24 -5t-9.5 -11.5t-1.5 -20.5v-358 q0 -16 -6.5 -24.5t-13.5 -10t-21 -1.5q-33 0 -42.5 5.5t-9.5 31.5v357q0 25 -9.5 31t-38.5 6h-346q-25 0 -30.5 9.5t-5.5 39.5z" />
<glyph unicode="," horiz-adv-x="512" d="M110 111q0 13 8 24t29.5 30t27.5 25t21 26.5t29 30t35 9.5q4 0 19 -9t36 -30.5t40.5 -50t33 -73t13.5 -94.5q0 -68 -29.5 -134t-69.5 -109t-79 -69.5t-61 -26.5q-12 0 -20.5 7.5t-8.5 19.5q0 11 13 24.5t31.5 29t37 36t31.5 53t13 72.5q0 31 -7 53.5t-27 44.5t-32.5 32 t-47.5 36q-31 23 -33.5 27.5t-2.5 15.5z" />
<glyph unicode="-" horiz-adv-x="696" d="M90 297v22q0 22 1 36.5t9.5 26.5t11.5 17t23.5 13t28.5 10.5t42 12.5q109 32 193 63l113 40q30 11 49 11q45 0 45 -69v-14q0 -21 -3.5 -33t-7.5 -20.5t-22.5 -16t-33.5 -12.5t-55 -17l-76 -23l-114 -39l-82 -29q-25 -10 -48 -16t-41 -6q-20 0 -26.5 11t-6.5 32z" />
<glyph unicode="." horiz-adv-x="516" d="M110 113q0 22 65 79q9 8 24 28.5t29.5 32.5t31.5 12q16 0 84 -81q6 -7 23 -22.5t28 -28t11 -21.5q0 -11 -10.5 -22t-31.5 -26.5t-30 -24.5q-8 -8 -23.5 -28t-29 -32t-25.5 -12q-19 0 -46.5 35t-34.5 40q-65 48 -65 71z" />
<glyph unicode="/" horiz-adv-x="851" d="M40 -348q0 9 5 25t17.5 47.5t16.5 43.5q624 1686 629 1701q7 22 19.5 29t40.5 7q43 0 43 -24q0 -12 -29 -90l-623 -1702q-16 -44 -27.5 -54t-36.5 -10q-55 0 -55 27z" />
<glyph unicode="0" horiz-adv-x="1084" d="M80 435q0 105 39.5 190.5t105 138.5t147 81.5t169.5 28.5q89 0 170 -27t147.5 -80.5t106 -142.5t39.5 -203q0 -86 -29 -166t-83.5 -144t-142 -102.5t-195.5 -38.5q-119 0 -212.5 40t-149 107t-84 148t-28.5 170zM194 424q0 -85 31.5 -153t84 -109t115 -62t129.5 -21 q139 0 239.5 99t100.5 261q0 102 -53.5 179.5t-134.5 115t-173 37.5q-66 0 -125.5 -21.5t-108 -62.5t-77 -109t-28.5 -154z" />
<glyph unicode="1" horiz-adv-x="696" d="M40 24q0 20 28.5 28.5t63.5 11t67 20t38 52.5q19 108 19 211q0 43 0.5 88t0.5 75q0 23 1 57.5t1 47.5q0 46 -1.5 75t-10.5 51t-17 32.5t-31 17.5t-42.5 9t-61.5 5q-37 2 -37 31q0 23 42 23q4 0 59 -7t178 -7q81 0 139.5 5.5t75.5 5.5q24 0 36 -10t12 -20 q0 -12 -7.5 -19.5t-15 -9.5t-23.5 -4t-22 -3q-11 -2 -27 -4t-24.5 -3.5t-20.5 -5.5t-18 -11t-13.5 -20.5t-11 -33t-6 -48.5t-2.5 -68q0 -12 -0.5 -45t-0.5 -59q0 -22 -2 -104t-2 -130v-48q0 -59 8 -86q9 -29 49 -45t83 -19.5t77.5 -13.5t34.5 -28t-13 -22t-45 -4 q-28 0 -121 5.5t-141 5.5q-47 0 -130.5 -5.5t-107.5 -5.5q-58 0 -58 32z" />
<glyph unicode="2" horiz-adv-x="958" d="M60 16q0 13 11.5 20.5t46 22.5t64.5 33q156 94 258.5 191.5t143.5 176t41 148.5q0 61 -36.5 107.5t-82 67t-86.5 20.5q-66 0 -94 -23.5t-28 -70.5q0 -23 16.5 -66t16.5 -55q0 -20 -25 -20q-51 0 -97.5 23.5t-46.5 50.5q0 19 8.5 44.5t33 58.5t61.5 59.5t100.5 45 t143.5 18.5q120 0 198 -56.5t78 -163.5q0 -88 -81 -193t-184 -189q-124 -100 -124 -118q0 -11 21 -14t73 -3q208 0 291 26q26 8 49 34t38 47.5t24 21.5q26 0 26 -23q0 -7 -52 -103.5t-58 -104.5q-22 -31 -30 -34q-5 -3 -13 -3q-9 0 -27.5 1t-45.5 2t-104.5 2t-191.5 1 q-134 0 -204 -1.5t-77 -1.5q-55 0 -55 21z" />
<glyph unicode="3" horiz-adv-x="828" d="M80 -279q0 66 36 66q7 0 24 -17l36 -35q19 -19 61 -35.5t94 -16.5q81 0 148.5 49.5t102 119.5t34.5 140q0 99 -84 164.5t-219 65.5q-19 0 -41 -3t-37 -5.5t-16 -2.5q-9 0 -17.5 6.5t-8.5 16.5q0 8 2 12t7 7.5t18 10.5l28 14l44 27t62 41q59 42 108.5 110t49.5 150 q0 63 -55.5 113.5t-132.5 50.5q-38 0 -66.5 -10.5t-41.5 -22.5t-27.5 -22.5t-27.5 -10.5t-17 5t-4 16q0 20 35 53.5t96.5 61.5t122.5 28q36 0 70 -5t70.5 -18.5t63.5 -34t44 -54.5t17 -78q0 -60 -35.5 -120.5t-77.5 -98.5l-78 -69q-35 -32 -35 -39q0 -3 21 -6t60 -12t72 -25 q63 -31 105.5 -87.5t42.5 -134.5q0 -80 -38.5 -169t-101.5 -163t-153 -122.5t-185 -48.5q-174 0 -174 73q0 16 -1 40t-1 25z" />
<glyph unicode="4" horiz-adv-x="1033" d="M20 29q0 21 16 41.5t112 124.5l508 561l18 22l22 26q10 12 22 24t22.5 19t18.5 7q23 0 23 -49q0 -3 -6.5 -143t-13 -296.5t-6.5 -200.5q0 -9 1.5 -14t10 -9t24.5 -4q50 0 80.5 7t39 16t16.5 16t18 7q5 0 10.5 -1.5t11 -8t5.5 -17.5q0 -12 -5.5 -28t-15.5 -40l-14 -34 q-2 -4 -6 -16t-7 -18.5t-8 -15t-11.5 -12.5t-14.5 -4q-17 0 -57.5 1t-54.5 1q-19 0 -24 -7.5t-5 -30.5q0 -32 3 -108t3 -109q0 -4 1 -23t1 -30q0 -19 -5.5 -30t-11 -13.5t-15.5 -5.5q-58 -15 -91 -15q-39 0 -39 29q0 8 2.5 20t6 31t6 89t2.5 180q0 32 -19 32q-24 0 -128 -2 t-177 -2q-45 0 -113.5 0.5t-97.5 0.5q-34 0 -46 5t-12 27zM210 156q0 -15 17 -19.5t61 -4.5h76q24 0 80.5 -1t82.5 -1q56 0 73.5 3.5t17.5 16.5q7 290 7 407q0 50 -11 50q-10 0 -66.5 -60t-78.5 -87q-39 -49 -107 -124l-110 -122q-42 -48 -42 -58z" />
<glyph unicode="5" horiz-adv-x="700" d="M-97 -260q0 13 0.5 20.5t2.5 17.5t8 14.5t15 4.5q12 0 27 -13.5t33 -32.5t41 -37.5t60.5 -32t82.5 -13.5q73 0 137.5 62.5t101.5 159.5t37 198q0 96 -25.5 155.5t-105.5 115.5q-45 31 -93.5 47.5t-77.5 19.5t-48 12.5t-19 31.5q0 17 6 33.5t16.5 39t35.5 90.5t55 164 q7 25 19 37t43 12q5 0 62 -2t91 -2h9h57q21 0 39.5 1.5t25.5 1t16 4t9.5 4.5t6.5 8t7 9l16 22q10 12 15 17.5t11 10.5t12 5q28 0 28 -21q0 -11 -7 -26l-33 -72l-20 -49q-7 -16 -11.5 -29t-10 -16.5t-11 -5t-20.5 -1.5q-298 -3 -321 -11q-8 -2 -11 -10q-31 -72 -31 -92 q0 -17 31.5 -30t75 -23.5t102 -41t100.5 -75.5q27 -29 58 -98t31 -152q0 -78 -17.5 -148.5t-34 -104.5t-43.5 -79q-39 -66 -89 -115.5t-95.5 -76t-96 -43t-86 -21t-71.5 -4.5q-34 0 -57 6.5t-60 27.5q-13 8 -21 56.5t-8 69.5z" />
<glyph unicode="6" horiz-adv-x="1018" d="M90 522q0 120 38 240t103 220t143.5 182.5t165.5 142.5q74 52 163.5 83t137.5 31q32 0 32 -27q0 -24 -22 -27q-90 -12 -153 -45.5t-150 -107.5q-57 -49 -105.5 -111.5t-77 -117t-49 -105t-28.5 -78.5t-8 -34q0 -8 6 -8q4 0 24 17l45 38q26 21 76 38t109 17 q179 0 283.5 -121t104.5 -323q0 -93 -27.5 -176.5t-77.5 -148.5t-128 -103t-173 -38q-166 0 -311 148q-121 125 -121 414zM255 534q0 -113 20.5 -204t52 -146.5t72 -93t78.5 -52t74 -14.5q41 0 82 20t77.5 57.5t59.5 101.5t23 143q0 43 -11 96.5t-37 114.5t-63.5 110.5 t-97 82.5t-130.5 33q-37 0 -70 -12t-89 -53q-15 -11 -20.5 -18t-13 -48.5t-7.5 -117.5z" />
<glyph unicode="7" horiz-adv-x="1027" d="M48 -359q0 25 191 276l381 500q191 249 191 269q0 22 -124 22h-161q-47 0 -77 -0.5t-77.5 -3.5t-78.5 -10t-63 -18.5t-51 -30.5t-24 -45q-2 -7 -9.5 -13t-15.5 -6t-14.5 5.5t-6.5 12.5q0 30 16.5 109t17.5 108q2 28 90 28q59 0 190 -4t210 -4q118 0 191.5 5t92.5 11.5 t29.5 11.5t17.5 5q11 0 17 -7.5t6 -16.5q0 -20 -68 -121l-546 -806q-48 -70 -80.5 -129t-44.5 -89l-19 -51q-8 -21 -13 -27t-18 -6q-6 0 -41 1.5t-64 1.5q-45 0 -45 22z" />
<glyph unicode="8" horiz-adv-x="1024" d="M80 366q0 81 28 145t67.5 99t79 57.5t67.5 34t28 15.5t-23.5 19t-57.5 40.5t-68 60t-57.5 89.5t-23.5 118q0 157 106 260t265 103q178 0 275 -93t97 -240q0 -67 -20 -122t-48.5 -87.5t-56.5 -54.5t-48 -34t-20 -16q0 -6 20.5 -19.5t50.5 -31t66 -47.5t66 -66.5t50.5 -92 t20.5 -119.5q0 -60 -14.5 -119t-47 -115.5t-80 -99.5t-119.5 -69t-159 -26q-157 0 -250 52q-92 53 -143 148t-51 211zM170 368q0 -153 97.5 -251.5t244.5 -98.5q64 0 116.5 19t86.5 49t57.5 69t33.5 78t10 77q0 57 -30.5 115t-76 102t-95 79.5t-90.5 54.5t-60 19 q-16 0 -44 -5.5t-73.5 -25.5t-83 -51.5t-65.5 -92t-28 -137.5zM240 1094q0 -46 29.5 -92.5t73.5 -81t92.5 -62t88 -41.5t58.5 -14t51.5 18t68 50t60.5 88t25 121q0 34 -17 76.5t-49.5 85.5t-89.5 72t-126 29q-63 0 -122 -27t-101 -85.5t-42 -136.5z" />
<glyph unicode="9" horiz-adv-x="996" d="M80 388q0 66 17 132.5t52.5 128.5t84.5 110t118 76.5t148 28.5q131 0 227 -70.5t142.5 -184t46.5 -253.5q0 -193 -92 -378t-275 -311q-71 -49 -160.5 -68t-154.5 -19q-12 0 -19.5 1.5t-14 10t-6.5 24.5q0 17 13.5 22t39.5 5q49 0 119.5 28t149.5 95q77 66 130.5 155.5 t53.5 129.5q0 5 -3 5t-12.5 -8t-27 -19.5t-41.5 -23t-64 -19.5t-87 -8q-96 0 -171 34t-121 92.5t-69.5 130.5t-23.5 153zM224 492q0 -98 39.5 -194.5t113.5 -162.5t162 -66q28 0 54 5t59 22t56.5 45.5t40 80t16.5 120.5q0 200 -97 324t-218 124q-90 0 -158 -78.5t-68 -219.5 z" />
<glyph unicode=":" horiz-adv-x="533" d="M120 113q0 4 2 8.5t7 10.5l9 11q5 5 13 12l13 12l15 13q9 8 14 12q8 7 24 27t30.5 30.5t31.5 10.5q5 0 11 -4t13.5 -12l14.5 -16l16 -22q10 -13 18 -22q6 -7 23 -22.5t27.5 -28t10.5 -21.5q0 -11 -10 -22t-31 -26.5t-30 -24.5q-8 -8 -23 -28t-28 -32t-25 -12 q-19 0 -48 35t-35 40q-63 46 -63 71zM136 688q0 24 60 76q9 8 22.5 26.5t26.5 29.5t29 11q14 0 75 -75q5 -6 20 -19.5t24 -25.5t9 -24q0 -8 -6.5 -17t-14 -16t-21.5 -18l-21 -19q-8 -8 -21 -27t-25 -30.5t-27 -11.5q-14 0 -27 13t-25 33t-18 26q-8 8 -26.5 24.5t-26 25.5 t-7.5 18z" />
<glyph unicode=";" horiz-adv-x="537" d="M120 700q0 19 65 76q9 8 20.5 27t24.5 30.5t33 11.5q3 0 8 -2.5t11 -8.5l10 -10q6 -6 13 -14.5t11 -14.5l12 -15q7 -9 10 -12q5 -7 21.5 -20.5t26.5 -26t10 -24.5q0 -8 -6.5 -17t-14 -16t-21.5 -18l-21 -19q-7 -7 -22 -26.5t-28 -30t-28 -10.5q-14 0 -27 13t-25 33 t-18 26q-10 10 -28.5 25t-27.5 24.5t-9 18.5zM125 111q0 13 8 24t29.5 30t27.5 25t21 26.5t29 30t35 9.5q4 0 19 -9t36 -30.5t40.5 -50t33 -73t13.5 -94.5q0 -68 -30 -134.5t-71 -110.5t-80.5 -71.5t-61.5 -27.5q-7 0 -16 10t-9 22q0 11 13 24.5t31.5 29t37 36t31.5 53 t13 72.5q0 52 -27.5 87t-86.5 79q-31 23 -33.5 27.5t-2.5 15.5z" />
<glyph unicode="&#x3c;" horiz-adv-x="1080" d="M83 433q0 17 5 25t27 16l648 237q188 69 196 69q38 0 38 -51q0 -22 -32 -32l-626 -229q-86 -33 -86 -42q0 -3 4.5 -6t14.5 -7t19 -7l24 -8l24 -8l636 -230q22 -8 22 -27q0 -16 -11.5 -32.5t-36.5 -16.5q-9 0 -274 97l-562 205q-21 7 -25.5 15.5t-4.5 31.5z" />
<glyph unicode="=" horiz-adv-x="1080" d="M63 634q0 16 1.5 23t10 13t26.5 6h882q23 0 28 -9t5 -34q0 -20 -2 -28.5t-11.5 -14t-29.5 -5.5h-874q-25 0 -30.5 9.5t-5.5 39.5zM63 234q0 16 1.5 23t10 13t26.5 6h882q23 0 28 -9t5 -34q0 -20 -2 -28.5t-11.5 -14t-29.5 -5.5h-874q-25 0 -30.5 9.5t-5.5 39.5z" />
<glyph unicode="&#x3e;" horiz-adv-x="1080" d="M83 133q0 19 22 27l636 230l24 8l24 8q9 3 19 7t14.5 7t4.5 6q0 9 -86 42l-626 229q-32 10 -32 32q0 51 38 51q8 0 196 -69l648 -237q22 -8 27 -16t5 -25q0 -23 -4.5 -31.5t-25.5 -15.5l-562 -205q-265 -97 -274 -97q-25 0 -36.5 16.5t-11.5 32.5z" />
<glyph unicode="?" horiz-adv-x="716" d="M154 1254q0 34 65 79t147 45q70 0 131.5 -25.5t103 -80t41.5 -128.5q0 -55 -29.5 -120.5t-72.5 -126.5l-84 -123q-43 -62 -72.5 -130.5t-29.5 -128.5q0 -21 5.5 -54t5.5 -41q0 -21 -16 -21q-30 0 -48 58t-18 105q0 61 47 174l94 223q47 110 47 163q0 42 -21.5 76t-53 52 t-61 27.5t-51.5 9.5q-27 0 -51 -13.5t-39.5 -26.5t-21.5 -13q-9 0 -13.5 7t-4.5 13zM199 121q0 19 73 83q7 6 24.5 26t30.5 30t26 10q9 0 24 -15.5t29.5 -35t16.5 -21.5t21 -17t34.5 -30.5t15.5 -24.5q0 -15 -12 -27.5t-31.5 -25.5t-26.5 -20q-8 -8 -23 -28t-27.5 -31.5 t-24.5 -11.5q-13 0 -39.5 22.5t-43.5 44.5q-5 6 -36 31t-31 41z" />
<glyph unicode="@" horiz-adv-x="1681" d="M90 586q0 143 35 264.5t92 206t134 151.5t156.5 107t164.5 66.5t152 36t125 9.5q142 0 263.5 -49.5t203.5 -134t128.5 -198.5t46.5 -242q0 -111 -38.5 -211.5t-102.5 -172t-149.5 -113.5t-175.5 -42q-53 0 -89 17t-49.5 41t-19.5 48t-8.5 41t-6.5 17t-22 -20l-46 -50 q-27 -30 -62.5 -59.5t-85.5 -50t-101 -20.5q-97 0 -144 54t-47 145q0 87 39.5 187.5t103 185.5t152.5 142t179 57q38 0 90.5 -9t55.5 -9q13 0 26 20.5t28 41t33 20.5q17 0 17 -40q0 -7 -25.5 -106.5t-51 -223t-25.5 -190.5v-25q0 -51 21 -86.5t64 -35.5q156 0 256.5 117.5 t100.5 339.5q0 128 -44 231t-121 169t-177 101.5t-215 35.5q-202 0 -369.5 -90.5t-268 -261t-100.5 -389.5q0 -192 81 -343t230 -236.5t342 -85.5q82 0 155.5 13.5t122 33t84.5 39.5t57 33.5t27 13.5q23 0 23 -24q0 -12 -22 -33.5t-67.5 -47.5t-104 -49t-141 -38.5 t-170.5 -15.5q-160 0 -295 48.5t-234 138t-155 226t-56 304.5zM581 465q0 -60 36 -91t92 -31q58 0 112 35t74 63q17 24 25.5 47t25.5 88q82 308 82 316q0 13 -45 27t-82 14q-34 0 -75.5 -19t-84.5 -59t-79 -94t-58.5 -132t-22.5 -164z" />
<glyph unicode="A" horiz-adv-x="1663" d="M40 17q0 27 32 39q37 14 59.5 35t56.5 78t95 186l153 329l349 751q14 30 25 38.5t35 8.5q20 0 27 -10t25 -63q43 -126 96 -256l227 -535q160 -375 175 -404q28 -57 62.5 -91t62.5 -43.5t52 -13.5t37.5 -11.5t13.5 -27.5q0 -32 -56 -32q-22 0 -88 6.5t-96 6.5 q-38 0 -101 -3.5t-91 -3.5q-64 0 -80.5 4.5t-16.5 22.5q0 15 16 23.5t35.5 12.5t35.5 19t16 41q0 45 -51.5 185t-87.5 205q-7 12 -11 17.5t-22 11.5t-50 6q-11 0 -90.5 -2t-157.5 -2h-108q-65 0 -94 -5t-40 -15.5t-24 -38.5l-41 -85l-38 -81l-26 -60q-15 -36 -20.5 -57 t-5.5 -38q0 -39 15.5 -62t38 -30t44.5 -10.5t37.5 -11t15.5 -24.5q0 -15 -6 -22.5t-28 -7.5q-11 0 -70.5 1t-99.5 1q-44 0 -100.5 -4t-75.5 -4q-61 0 -61 26zM555 692q0 -26 18.5 -32.5t86.5 -6.5h62l195 2q80 0 80 34q0 26 -100.5 252.5t-125.5 226.5q-18 0 -117 -226.5 t-99 -249.5z" />
<glyph unicode="B" horiz-adv-x="1290" d="M40 1422q0 11 5.5 21t14.5 10q5 0 25 -1.5t56 -1.5q41 0 164 1.5t136 1.5q46 0 118.5 2.5t106.5 2.5q89 0 167 -22t138 -63.5t95 -107.5t35 -149q0 -60 -21 -112.5t-51 -85.5t-60 -56.5t-51 -36.5t-21 -15q0 -5 24.5 -13.5t61.5 -19.5t80.5 -38t80.5 -64t61.5 -102 t24.5 -148q0 -87 -51.5 -187t-120.5 -148q-91 -64 -168 -85.5t-188 -21.5q-82 0 -216.5 12t-149.5 12q-22 0 -80 -4.5t-96 -4.5q-3 0 -12.5 -0.5t-15.5 -0.5q-44 0 -44 31q0 30 22 30q13 0 27.5 0.5t20.5 0.5q12 0 25.5 8.5t28 28t25 59.5t12.5 95q8 177 8 639l-1 349 q0 10 -2 24t-12.5 39.5t-28 45t-53.5 35t-84 15.5q-36 0 -36 25zM411 188q0 -41 20 -68t55 -38t62.5 -14t63.5 -3h48q116 0 176 10q96 16 158 100t62 201q0 72 -19 131t-48 96.5t-70 65.5t-77.5 42.5t-78 22.5t-64.5 10t-44 2q-65 0 -107 0.5t-53.5 1.5t-18.5 1.5t-12 0.5 q-25 0 -33 -15q-16 -30 -18 -233v-85v-16q0 -75 -0.5 -123t-1 -66.5t-0.5 -23.5zM423 1117q0 -102 1 -160.5t5 -88t8.5 -37.5t12.5 -9q47 -6 104 -6h133q130 0 194 67t64 173q0 38 -14.5 81t-47 88t-79 80.5t-117.5 58.5t-156 23q-43 0 -64 -14t-32.5 -60t-11.5 -138v-58z " />
<glyph unicode="C" horiz-adv-x="1653" d="M90 663q0 166 50.5 310t146 253.5t245 173t334.5 63.5q79 0 161 -15.5t143.5 -37.5t111.5 -44.5t80.5 -38t34.5 -15.5q7 0 20 10.5t22 10.5q11 0 20.5 -8.5t10.5 -23.5q2 -59 9.5 -125.5t13.5 -110.5t6 -52q0 -36 -24 -36q-20 0 -35 29q-93 176 -237 274t-337 98 q-168 0 -300.5 -73.5t-208 -209t-75.5 -309.5q0 -115 22.5 -218.5t74 -199t128.5 -164.5t194 -110t261 -41q73 0 141.5 20.5t119.5 51.5t98.5 74t78.5 81t59 80q9 14 30 14q19 0 19 -27q0 -17 -5 -47.5t-11 -55.5l-12 -58l-10 -41q-5 -23 -32 -36q-85 -41 -131 -61t-116 -44 t-137 -34t-144 -10q-129 0 -240 22t-193.5 60.5t-148.5 92.5t-110 116t-73.5 132t-42 139.5t-12.5 140.5z" />
<glyph unicode="D" horiz-adv-x="1623" d="M40 1433q0 18 18.5 22t87.5 4h177q51 0 188 4t211 4q113 0 226 -26.5t218.5 -82t186.5 -133t130 -188t49 -238.5q0 -117 -15 -209t-37 -155t-64 -121.5t-80 -95.5t-101 -89q-60 -50 -176.5 -93t-240.5 -43q-12 0 -209 6t-283 6q-72 0 -134 -5.5t-72 -5.5q-29 0 -38.5 6 t-9.5 20q0 13 6 20.5t13.5 10.5t24 7.5t27.5 9.5q33 14 60.5 54t27.5 79q0 114 1.5 293t1.5 262q0 73 -1 229.5t-1 289.5q0 36 -34.5 71.5t-75.5 38.5q-54 4 -67 13q-15 10 -15 35zM404 289q0 -31 0.5 -51.5t4 -39t6.5 -28.5t12.5 -20t17 -14.5t25 -11t31 -9.5t40.5 -11 l49 -13q69 -21 150 -21h40q140 0 238.5 39t187.5 126q79 77 115.5 206t36.5 265q0 133 -42.5 245.5t-113 190t-162.5 132t-189.5 79.5t-194.5 25h-67q-21 0 -52 -3t-42.5 -4t-30.5 -10.5t-23.5 -15t-14 -24.5t-10.5 -32t-4 -44.5t-3 -54.5v-71q0 -45 -1.5 -213t-1.5 -182 q0 -123 -1 -265t-1 -170z" />
<glyph unicode="E" horiz-adv-x="1237" d="M40 1432q0 28 59 28q8 0 26 -1.5t29 -1.5q6 0 192.5 -6t306.5 -6q44 0 213 4.5t197 4.5q38 0 38 -47q0 -12 -12 -81t-12 -128q0 -18 -10 -31.5t-22 -13.5q-13 0 -22 11.5t-9 32.5q0 55 -35.5 99t-86.5 48q-172 13 -282 13h-52h-52q-17 0 -37 -4t-26 -5.5t-15 -14 t-10 -19.5t-3.5 -32t-3.5 -42v-8q-4 -77 -7 -342q0 -101 38 -103q19 -1 51 -1q15 0 42.5 0.5t44.5 0.5h63q123 0 163.5 8t73.5 30q22 15 33.5 36.5t13.5 37t8.5 26.5t21.5 11q17 0 22 -7t5 -26q0 -14 -9 -94.5t-9 -120.5q0 -38 3.5 -73t3.5 -51q0 -53 -14 -53q-19 0 -31 19 t-17 43t-17.5 50.5t-30.5 38.5q-43 29 -198 29h-99q-39 0 -49.5 0.5t-17.5 0.5h-13q-84 0 -84 -39q0 -59 -2 -148.5t-2 -146.5q0 -14 -0.5 -41.5t-0.5 -40.5q0 -58 12.5 -106t36.5 -56q51 -16 88 -16q117 0 212 8.5t155 22t106 31t69 36t40 36t23.5 31t14.5 22t18 8.5 q25 0 25 -34q0 -87 -88.5 -178.5t-154.5 -91.5q-148 0 -332.5 11t-229.5 11q-58 0 -145 -10t-135 -10q-14 0 -21 0.5t-14 6t-7 15.5q0 18 0.5 24t6 10.5t13 4.5t27 6.5t41.5 17.5q34 16 49.5 48.5t23 111t7.5 237.5v254q0 55 3 172.5t3 182.5q0 75 -5 185q-3 60 -51.5 92.5 t-114.5 34.5q-15 0 -23 6.5t-9 13t-1 18.5z" />
<glyph unicode="F" horiz-adv-x="1134" d="M40 1427q0 6 3 13t16.5 15t34.5 8h55q49 0 159 -7t285 -7q145 0 258 6t207 6q36 0 36 -49q0 -17 -4.5 -45.5t-12.5 -75t-13 -88.5t-30 -42q-29 0 -29 41q0 59 -22.5 98t-71.5 43q-321 25 -368 25q-33 0 -55.5 -2t-37.5 -9.5t-23 -13t-12.5 -23t-5.5 -27t-2 -37.5 q-1 -12 -1 -19q-4 -77 -7 -342q0 -101 38 -103q19 -1 51 -1q15 0 42.5 0.5t44.5 0.5h63q123 0 163.5 8t73.5 30q22 15 33 36.5t12 37t8 26.5t24 11t22 -7t5 -26q0 -14 -9.5 -72.5t-9.5 -98.5q0 -38 7 -95t7 -73q0 -24 -4 -35.5t-9 -13.5t-15 -2q-24 0 -34 19.5t-10.5 44 t-10.5 50t-33 35.5q-29 13 -102.5 21t-95.5 8h-100q-38 0 -48.5 0.5t-17.5 0.5h-13q-84 0 -84 -39q0 -59 -2 -148.5t-2 -146.5q0 -14 -0.5 -41.5t-0.5 -40.5q0 -28 5.5 -57.5t20.5 -68t50.5 -63t87.5 -24.5q32 0 46 -11.5t14 -25.5q0 -13 -14 -26.5t-49 -13.5 q-33 0 -103 8.5t-95 8.5q-57 0 -128 -6t-120 -6q-14 0 -21 0.5t-14 6t-7 15.5q0 26 10 32.5t78 30.5q54 19 66 105.5t13 371.5q0 110 1 174q0 45 3 164.5t3 190.5v120q0 29 -3 51t-12 47.5t-29.5 46t-51.5 35.5q-17 8 -45 9.5t-43 6.5t-15 24z" />
<glyph unicode="G" horiz-adv-x="1675" d="M90 674q0 165 52 309t150.5 253.5t252.5 173t345 63.5q97 0 183.5 -15t142 -36.5t96 -43t62.5 -36.5t26 -15q7 0 28 15.5t30 15.5q29 0 31 -42q2 -59 9.5 -124.5t13.5 -108t6 -50.5q0 -36 -24 -36t-35 24q-72 156 -240.5 263.5t-345.5 107.5q-123 0 -230 -40t-188 -115 t-127 -191.5t-46 -259.5q0 -111 26 -218.5t78 -200.5t124 -164t170.5 -112t210.5 -41q158 0 285.5 71t141.5 164q7 56 7 257q0 53 -15 86t-37 43t-48 15.5t-48 5.5t-37 10.5t-15 33.5q0 21 37 21q26 0 113 -5t113 -5q42 0 89 0.5t77 0.5l30 1q31 0 31 -18q0 -13 -25 -23.5 t-52.5 -27t-31.5 -43.5q-15 -95 -15 -230q0 -80 2.5 -131t5 -71.5t2.5 -25.5q0 -11 -15.5 -16t-50 -14.5t-63.5 -25.5q-1 0 -21 -13t-43 -25l-56 -30q-35 -18 -73.5 -32.5t-82 -28t-92 -21.5t-95.5 -8q-179 0 -321.5 40.5t-234 107.5t-152.5 160t-86 192t-25 209z" />
<glyph unicode="H" horiz-adv-x="1619" d="M40 1432q0 22 58 22q22 0 94 -4.5t137 -4.5q39 0 75 2t106 2q46 0 46 -28q0 -17 -13.5 -26t-58.5 -9q-29 0 -48 -49.5t-25 -103t-6 -102.5q0 -15 0.5 -40.5t0.5 -35.5q0 -51 -2 -113t-2 -76q0 -52 12.5 -65.5t57.5 -13.5q4 0 79.5 1t255.5 1q17 0 56 -0.5t127.5 -1.5 t203.5 -2q12 0 16 16q7 29 7 268q0 17 -0.5 53.5t-0.5 56.5q0 67 -12.5 111.5t-31.5 62t-41.5 27t-41.5 10.5t-31.5 9t-12.5 26q0 20 79 20q21 0 88.5 -2t110.5 -2q22 0 71.5 2t88.5 2q46 0 46 -26t-28 -26q-57 0 -86 -35t-30 -92q-6 -394 -6 -497q0 -47 -2 -150t-2 -159 v-76q0 -62 3.5 -113.5t3.5 -73.5q0 -129 173 -151q24 -4 24 -23q0 -15 -21.5 -19.5t-78.5 -4.5q-22 0 -75 6t-84 6q-36 0 -89 -6t-103 -6q-44 0 -59 4.5t-15 23.5q0 13 20.5 22.5t45.5 16t48 24t28 43.5q15 79 15 150q0 21 0.5 58t0.5 52q0 36 2.5 119.5t2.5 132.5 q0 30 -24 42.5t-105 12.5q-32 0 -142 -3t-111 -3q-89 0 -202 3.5t-174 3.5q-30 0 -41 -13.5t-11 -63.5q0 -52 -3.5 -133.5t-3.5 -118.5v-87q0 -88 16.5 -131.5t79.5 -83.5q18 -11 88 -11q15 0 26.5 -7.5t11.5 -15.5q0 -36 -65 -36q-60 0 -100.5 4t-69.5 4q-58 0 -123.5 -5 t-97.5 -5q-39 0 -61.5 4.5t-28.5 10.5t-6 16q0 15 12.5 21.5t32 10t40.5 10.5t39.5 29.5t27.5 59.5q7 31 16.5 207t9.5 339v117q0 27 1 102t1 119q0 156 -12 244q-7 51 -55.5 80t-99.5 29q-21 0 -32 13t-11 22z" />
<glyph unicode="I" horiz-adv-x="672" d="M40 1424q0 31 58 31q22 0 94 -5t137 -5q39 0 75 2t106 2q56 0 56 -28q0 -12 -20.5 -23.5t-73.5 -32.5q-67 -27 -67 -234q0 -278 -2.5 -490t-2.5 -269q0 -95 11 -150t40 -97q44 -63 97 -63q4 0 21 -1.5t20 -1.5q15 0 29 -7.5t14 -15.5q0 -23 -11 -29.5t-39 -6.5 q-60 0 -113 4t-82 4q-58 0 -126 -5t-100 -5q-39 0 -60 4.5t-26 10.5t-5 16q0 15 12.5 21.5t32 10t40.5 10.5t39.5 29.5t27.5 59.5q3 14 12 231t9 315v117q0 27 1 102t1 119v95q0 97 -7 149q-7 49 -54.5 75t-100.5 29q-43 2 -43 32z" />
<glyph unicode="J" horiz-adv-x="594" d="M-93 -316q0 30 23.5 72t40.5 42q11 0 22.5 -11t21 -24.5t29.5 -24.5t46 -11q112 0 142 160q26 140 26 249q0 22 -0.5 83t-1 114t-0.5 54l-3 139q-3 140 -3 560q0 134 -9 203q-4 33 -31.5 56.5t-59 32t-64.5 10.5q-27 1 -36.5 13.5t-9.5 24.5q0 35 61 35q22 0 94 -7 t137 -7q40 0 68 2t98 2q56 0 56 -28q0 -12 -20.5 -23.5t-73.5 -32.5q-43 -17 -43 -141v-93q0 -340 -0.5 -556t-1.5 -277t-1.5 -97.5t-0.5 -60.5q0 -116 -35 -217.5t-93.5 -170t-135.5 -108t-160 -39.5q-15 0 -26 2t-25.5 8.5t-22.5 23.5t-8 43z" />
<glyph unicode="K" horiz-adv-x="1483" d="M40 1424q0 25 58 25q22 0 94 -2t137 -2q38 0 68.5 2t108.5 2q35 0 35 -25q0 -9 -10.5 -15.5t-31 -14.5t-31.5 -14q-63 -36 -63 -249q0 -109 -2.5 -212t-2.5 -107q0 -27 3 -35t14 -8q9 0 105 76l208 173q112 96 204 192.5t92 130.5q0 13 -6.5 22.5t-20.5 15.5t-24 8.5 t-29 6.5l-23 4q-21 4 -21 29q0 22 32 22q5 0 22 -0.5t29 -0.5q5 0 48 -2t74 -2l254 6q41 0 41 -27q0 -9 -5 -15.5t-16 -11t-23 -8.5l-34 -10q-22 -6 -40 -14q-14 -6 -27 -13.5t-37 -24.5l-37 -24q-19 -12 -100 -81l-488 -410q-21 -17 -21 -28q0 -13 21 -34l462 -457 q163 -157 231 -195q41 -23 87 -31q51 -8 61 -17q7 -8 7 -21q0 -19 -15.5 -22t-102.5 -3h-198q-15 0 -22 1.5t-14.5 6t-18.5 18.5l-27 31l-47 52l-71 75q-404 411 -425 431q-53 45 -69 46q-29 0 -29 -56v-7v-17q0 -12 0.5 -29t0.5 -45v-59q0 -267 32 -324q37 -66 136 -66 q3 0 8 -1t8 -1q15 0 29 -7.5t14 -15.5q0 -23 -11 -29.5t-39 -6.5q-60 0 -113 4t-82 4q-58 0 -126 -5t-100 -5t-48.5 3.5t-20.5 7.5t-4 11v9q0 13 20 19l48 13q28 8 44 25q29 29 36 133.5t7 328.5v275q0 27 -1.5 102t-1.5 119v95q0 97 -7 149q-6 48 -52 74.5t-98 29.5 q-43 2 -43 32z" />
<glyph unicode="L" horiz-adv-x="1235" d="M40 1423q0 20 19 28.5t38 8.5q8 0 26 -1.5t29 -1.5q21 0 77 -5t100 -5q65 0 135.5 5t79.5 5q20 0 28 -4.5t8 -17.5q0 -20 -11.5 -30t-29 -11.5t-38.5 -9.5t-39.5 -22t-32.5 -51.5t-17 -95.5q-4 -81 -10 -443t-6 -414q0 -14 -0.5 -41.5t-0.5 -40.5q0 -58 12.5 -106 t36.5 -56q51 -16 88 -16q117 0 212 8.5t155 22t106 31t69 36t40 36t23.5 31t14.5 22t18 8.5q25 0 25 -34q0 -87 -88.5 -178.5t-154.5 -91.5q-148 0 -332.5 11t-229.5 11q-58 0 -133 -9t-123 -9q-29 0 -45 7.5t-16 18.5q0 15 11 24t22 9q32 0 60 20q26 19 39.5 49.5t22 115 t8.5 236.5v254q0 55 3 172.5t3 182.5q0 75 -5 185q-3 60 -51.5 92.5t-114.5 34.5q-20 1 -25.5 8t-5.5 21z" />
<glyph unicode="M" horiz-adv-x="1882" d="M40 1424q0 31 37 31q12 0 57 -5t53 -5q30 0 82.5 3t69.5 3q37 0 50 -30l89 -191l101 -221l97 -209l96 -205l77 -158q39 -80 61 -118t28 -38t13 6.5t15 20.5l12 25q6 11 15 31.5t13 28.5l263 546l79 166l56 119l36 78q14 32 20.5 48t10 25.5t5.5 14t4 9.5q2 4 8 19 t10.5 20t20 11t40.5 6q39 0 72 -2t103 -2q11 0 16.5 -1t12 -7.5t6.5 -18.5q0 -20 -13 -30t-54 -16q-51 -7 -71.5 -51t-20.5 -172q0 -278 12.5 -501.5t12.5 -280.5q0 -73 3 -122t11.5 -86t19.5 -57.5t32 -33t44 -16t59 -3.5q14 0 26 -9.5t12 -18.5q0 -23 -9 -28.5t-37 -5.5 q-60 0 -119.5 5t-88.5 5q-58 0 -120 -6t-94 -6q-36 0 -36 30q0 19 16.5 26.5t38 10t44.5 26t34 70.5q7 29 7 130q0 65 -3 157.5t-7 179.5t-8 163l-8 126q-3 49 -3 50q0 88 -17 88q-7 0 -15 -8t-20 -29.5t-20 -37.5l-26 -53l-284 -575l-105 -218q-37 -77 -45.5 -90t-21.5 -13 q-11 0 -20.5 8.5t-18.5 27t-17 39.5t-22.5 55t-29.5 64q-354 720 -375 757q-15 26 -23 26q-16 0 -17 -81q-2 -160 -9.5 -315t-7.5 -226v-92q0 -34 1 -54t5.5 -50t14.5 -48t27 -37t44.5 -29.5t65.5 -14.5q10 -1 19 -8.5t9 -15.5q0 -23 -7 -29.5t-25 -6.5q-40 0 -122 4.5 t-91 4.5q-4 0 -58.5 -4t-107.5 -4q-23 0 -34 6t-11 27q0 15 11.5 19.5t30.5 7.5t39.5 11.5t41.5 38t33 80.5q11 44 25.5 355.5t14.5 461.5q0 84 -5 138.5t-17.5 99.5t-37 72.5t-61 46.5t-92.5 33q-28 6 -28 32z" />
<glyph unicode="N" horiz-adv-x="1635" d="M40 1416q0 12 15.5 23t37.5 11q12 0 40 -1.5t36 -1.5q30 0 57.5 2.5t44.5 2.5q18 0 41.5 -11t28.5 -23q3 -6 23 -28l50 -56q31 -36 55 -68q138 -180 371 -449l375 -425l30 -34l24 -27l16 -18q8 -9 13 -12t9 -3q21 0 21 128v239q0 138 -1.5 232t-3 136t-1.5 52v15 q0 69 -9.5 119t-21.5 76.5t-35.5 44t-39 22.5t-46 11.5t-43.5 10.5q-42 13 -42 36q0 31 40 31q13 0 98 -1.5t96 -1.5q49 0 110 2.5t74 2.5q35 0 48.5 -7.5t13.5 -27.5q0 -8 -11 -15.5t-23.5 -12t-25 -8.5t-13.5 -5q-13 -8 -26 -26t-27 -73t-14 -134v-78q0 -155 -11.5 -538.5 t-11.5 -473.5q0 -8 0.5 -22t0.5 -20q0 -46 -28 -46q-22 0 -34 14q-824 953 -903 1037q-44 47 -55 47q-20 0 -20 -139q0 -195 -8.5 -419t-8.5 -244q0 -64 15 -106.5t37 -60t48.5 -27t48.5 -10.5t37 -8.5t15 -22.5q0 -23 -7 -29.5t-25 -6.5q-15 0 -65.5 2.5t-155.5 2.5 q-18 0 -75.5 -2t-97.5 -2q-23 0 -34 6t-11 27q0 14 11 20t28.5 10t37 13t40 37t34.5 75q13 46 31 379t18 462q0 176 -49 263t-159 100q-28 3 -28 32z" />
<glyph unicode="O" horiz-adv-x="1746" d="M90 695q0 167 51 308.5t148.5 248t249.5 166.5t343 60q128 0 237.5 -26.5t187 -70.5t139.5 -103.5t100.5 -121.5t64 -128.5t35.5 -122t10 -103.5q0 -169 -40.5 -307.5t-112.5 -235.5t-173.5 -163t-220.5 -97t-256 -31q-184 0 -332 61.5t-240.5 164.5t-141.5 231.5 t-49 269.5zM270 799q0 -58 11.5 -123.5t37 -137.5t62 -140.5t90 -130t118 -108t150 -74t181.5 -27.5q70 0 146.5 21.5t152 67t135.5 109.5t97.5 157.5t37.5 201.5q0 151 -35.5 279t-98.5 219.5t-148.5 156t-185 95.5t-208.5 31q-106 0 -201 -35.5t-172.5 -105.5 t-123.5 -187.5t-46 -268.5z" />
<glyph unicode="P" horiz-adv-x="1156" d="M40 1422q0 14 12.5 23t35.5 9q5 0 22 1.5t53 1.5q9 0 56 -3t67 -3q46 0 175.5 3t163.5 3q90 0 172.5 -23.5t150 -68.5t108 -119t40.5 -167q0 -73 -19.5 -135t-50.5 -104.5t-72.5 -76.5t-83.5 -54t-85.5 -33t-76.5 -18t-59 -5q-65 0 -133 16t-68 32q0 31 27 31 q11 0 43 -8.5t61 -8.5q37 0 78.5 7.5t90 28t86 51t63 82.5t25.5 118q0 62 -26.5 126t-76 120t-132 91.5t-182.5 35.5q-43 0 -64 -14t-32.5 -59.5t-11.5 -136.5q0 -426 -2 -486.5t-2 -358.5q0 -182 84 -236q23 -15 56 -19t56.5 -3t40.5 -8t17 -34q0 -34 -46 -34 q-47 0 -165.5 4.5t-127.5 4.5q-21 0 -81.5 -4t-110.5 -4q-63 0 -63 24q0 11 3 19.5t6.5 13.5t13.5 9l14 6q5 2 20 5t22 5q4 1 12.5 2.5t11.5 3t9.5 6.5t11 13.5t11 24.5t14.5 40q13 39 22 308.5t9 414.5q0 128 -0.5 235t-0.5 114q0 22 -7 47t-22.5 53t-47 46t-73.5 18 t-42 27z" />
<glyph unicode="Q" horiz-adv-x="1719" d="M93 695q0 133 27 248t87.5 214.5t151 170t224.5 110.5t302 40q123 0 228.5 -29t180 -76t134.5 -111t96.5 -131t61 -138.5t34 -130.5t9.5 -111q0 -107 -29.5 -219.5t-83.5 -212.5t-139.5 -176t-186.5 -103l-62 -17q-56 -15 -70 -20t-14 -10q0 -21 40 -39q10 -5 66 -30 l79 -34l80 -35q56 -24 89 -36l84 -30q50 -18 85.5 -26.5t74.5 -15.5t70 -7q46 0 78.5 10.5t46 23t30.5 23t35 10.5q7 0 14.5 -9.5t7.5 -15.5q0 -47 -52.5 -89t-135 -66t-169.5 -24q-83 0 -210 43t-254 104l-247 122q-121 62 -219.5 105t-140.5 43q-49 0 -86.5 -19.5 t-58 -52.5t-30.5 -69t-10 -75q0 -8 0.5 -20t0.5 -17q0 -53 -38 -53q-19 0 -33.5 26t-14.5 59q0 91 41 171t90 114q5 3 13 9t12.5 8.5t9.5 6.5t7 7t2 5q0 8 -45 40q-129 91 -196 230.5t-67 304.5zM279 799q0 -127 39 -255t113 -232q81 -112 228.5 -183t258.5 -71 q146 0 294 77q37 19 78.5 60.5t82.5 101.5t68 144.5t27 173.5q0 216 -87.5 396t-237 282.5t-327.5 102.5q-106 0 -200 -35.5t-170.5 -105.5t-121.5 -187.5t-45 -268.5z" />
<glyph unicode="R" horiz-adv-x="1471" d="M40 1426q0 20 13 26.5t47 6.5h340q46 0 108.5 2.5t96.5 2.5q119 0 219 -39t163.5 -119t63.5 -186q0 -85 -26.5 -153.5t-64 -107t-75 -65t-64 -42t-26.5 -22.5q0 -24 172 -264.5t237 -309.5q86 -96 187 -97q11 0 20.5 -6.5t9.5 -17.5q0 -21 -7 -30t-40.5 -15.5 t-104.5 -6.5q-11 0 -33 2t-66 14t-77 31q-26 15 -55.5 43.5t-66.5 77.5l-61 82q-24 33 -68 103l-58 92l-59 94q-99 161 -150 161q-6 0 -22 -0.5t-22 -0.5q-55 0 -89 0.5t-36 0.5q-21 0 -26 -12q-8 -17 -8 -135v-162q0 -62 0.5 -80t0.5 -28v-18q0 -50 14 -87t36 -55.5 t49 -30.5t54 -17l49 -8q22 -4 36 -11.5t14 -20.5q0 -33 -36 -33q-3 0 -142.5 7t-151.5 7q-59 0 -141 -3.5t-83 -3.5q-44 0 -44 33q0 16 12.5 24.5t32 10t41.5 10.5t41.5 23t32 49.5t12.5 88.5q0 54 1.5 287t1.5 358q0 128 -1.5 233t-1.5 113q0 62 -20.5 99.5t-49.5 50 t-58.5 18t-50 12.5t-20.5 24zM412 1098q0 -211 2.5 -261.5t14.5 -58.5q28 -18 87 -18h20q9 0 29 -0.5t31 -0.5q90 0 155.5 23.5t101 65t51.5 90t16 106.5q0 44 -13 89t-43 90t-74.5 79.5t-114 56t-154.5 21.5q-75 0 -92 -40t-17 -185v-57z" />
<glyph unicode="S" horiz-adv-x="1221" d="M120 383q0 43 30 43q23 0 32 -21q14 -34 25.5 -58.5t34 -62.5t45.5 -65.5t59 -58.5t75.5 -50.5t93.5 -32.5t115 -13q154 0 247 81t93 212q0 57 -20 101.5t-57 75t-83 54t-105 44.5l-115 40q-57 19 -123 46.5t-118 58.5q-188 112 -188 300q0 181 132 291.5t343 110.5 q58 0 125.5 -16.5t114.5 -33.5t56 -17q6 0 22.5 7.5t24.5 7.5q28 0 31 -16q42 -235 42 -279q0 -57 -27 -57q-12 0 -18 6.5t-12 21.5q-25 61 -46.5 96t-35.5 49.5t-52 48.5q-111 98 -270 98q-126 0 -212 -61.5t-86 -166.5q0 -59 21 -104.5t57 -74.5t86 -54t105 -41.5 t117.5 -39t120.5 -46t117 -61.5t103 -86q81 -87 81 -219q0 -143 -65.5 -251t-173 -162.5t-238.5 -54.5q-141 0 -226.5 15t-176.5 63q-28 15 -64.5 158.5t-36.5 173.5z" />
<glyph unicode="T" horiz-adv-x="1439" d="M40 1188q0 74 21 210q1 5 2.5 18t2.5 16l4 13q2 9 6 11.5t10 7t15.5 5.5t22.5 1q33 0 173.5 -8t405.5 -8q459 0 630 11q3 0 7.5 0.5t6.5 0.5q15 0 25 -8t12 -15t2 -12q0 -13 6.5 -86t6.5 -80q0 -52 -5.5 -65t-26.5 -13q-16 0 -23 25q-8 31 -12.5 44.5t-14.5 33.5t-22 27 t-33.5 16.5t-52 12t-73.5 2.5h-266q-50 0 -61 -20t-11 -111v-100q0 -275 -2.5 -484.5t-2.5 -266.5q0 -29 -1 -73t-1 -60q0 -87 29 -116q26 -25 59 -38t56 -15t39.5 -10.5t16.5 -26.5q0 -23 -10.5 -29t-38.5 -6q-25 0 -108.5 8.5t-119.5 8.5q-25 0 -100 -8t-109 -8 q-75 0 -75 33q0 20 17.5 29t43.5 12t52.5 8.5t47 25t24.5 55.5q19 171 19 773l-2 367q0 28 -8 38.5t-38.5 15t-107.5 4.5q-143 0 -216 -8t-86.5 -15.5t-28.5 -27.5q-18 -24 -29 -53.5t-14.5 -49t-13 -33t-26.5 -13.5q-24 0 -24 34z" />
<glyph unicode="U" horiz-adv-x="1669" d="M40 1427q0 9 2 14t13 9.5t33 4.5t94 -4.5t137 -4.5q41 0 75 2t118 2q44 0 44 -28q0 -15 -10.5 -21t-26.5 -5t-35 -7t-35 -24.5t-26.5 -62t-10.5 -114.5v-57q0 -96 -1 -243t-1 -200q0 -206 21 -304q47 -224 236 -293q91 -34 218 -34q158 0 236 22q180 50 248 248 q46 132 46 336q0 207 -0.5 315.5t-0.5 119.5q0 70 -3 112t-20.5 90.5t-50.5 71.5q-20 14 -53.5 19t-53.5 9t-20 18q0 31 40 31q13 0 80 -1.5t78 -1.5q49 0 105 3t69 3q20 0 30.5 -5t12 -10t1.5 -12q0 -13 -19 -25l-45 -28q-25 -16 -35 -34q-14 -26 -18 -51.5t-4 -83.5 q0 -14 0.5 -59.5t0.5 -79.5q0 -199 -6.5 -343t-23.5 -255.5t-41 -184.5t-63.5 -127.5t-85 -87t-112.5 -60.5q-50 -21 -140 -33t-153 -12q-184 0 -296.5 31t-187.5 100q-27 25 -48.5 52.5t-38.5 53.5t-29 64t-20.5 67.5t-14 80.5t-9 87.5t-4.5 104t-1.5 113.5t-0.5 133v35 q0 80 2 176t2 118q0 59 -4 91t-20 59t-46 40t-83 21q-45 6 -45 39z" />
<glyph unicode="V" horiz-adv-x="1652" d="M40 1426q0 29 59 29q11 0 78.5 -4.5t146.5 -4.5q17 0 63.5 2.5t68.5 2.5q46 0 57 -3.5t11 -19.5q0 -10 -13 -18.5t-28.5 -15t-28.5 -23t-13 -39.5q0 -26 7 -54.5t32 -85.5l50 -114l84 -186l113 -253q173 -395 204 -395q10 0 118 247.5t213 517.5t105 320q0 32 -23.5 49.5 t-51 20.5t-51 11t-23.5 24q0 14 7.5 17.5t35.5 3.5q7 0 47.5 -1.5t81.5 -1.5q36 0 82.5 2t99.5 2q40 0 40 -28q0 -15 -13 -25t-32 -18t-43.5 -35t-43.5 -69l-455 -1041l-94 -218q-26 -63 -32 -73.5t-17 -10.5q-35 0 -92 142q-62 155 -211 475l-141 313l-92 211l-50 121 q-23 53 -35 75.5t-29 41.5q-34 38 -72.5 55t-62.5 16t-40.5 6.5t-16.5 31.5z" />
<glyph unicode="W" horiz-adv-x="2274" d="M40 1423q0 30 56 30q11 0 78.5 -3.5t146.5 -3.5q59 0 116 3t61 3q18 0 23 -4.5t5 -19.5q0 -10 -14 -19t-30 -15.5t-30 -22.5t-14 -39q0 -19 8 -45.5t32 -84.5l52 -118l86 -190l113 -255l42 -97l45 -106l39 -86q21 -45 34 -68t19 -23q9 0 64.5 124t102.5 242q8 20 19.5 42 t17 37t5.5 32q0 24 -123.5 299t-158.5 315q-12 13 -22 21.5t-20.5 12.5t-15.5 5t-17.5 2t-15.5 1q-57 6 -69.5 12t-12.5 22q0 29 59 29q11 0 78.5 -4.5t146.5 -4.5q6 0 56 4t80 4q61 0 61 -16q0 -10 -13.5 -19.5t-30.5 -18t-30.5 -26t-13.5 -40.5q0 -40 42 -136 q-7 17 21 -47l26 -67q25 -61 43.5 -100t26.5 -39q16 0 82 179t66 212q0 29 -19 45t-42 20t-42 11.5t-19 21.5q0 23 44 23q13 0 62 -2t69 -2h35q42 0 109 5q3 0 9 0.5t9 0.5q26 0 26 -21q0 -15 -15.5 -22.5t-39.5 -15t-37 -21.5q-30 -31 -56 -95l-49 -118l-40 -94l-31 -72 l-24 -56l-17 -40q-8 -19 -12 -30l-6 -19q-3 -9 -4 -15t-1.5 -10.5t-0.5 -11.5q0 -17 125.5 -295.5t147.5 -278.5q24 0 237.5 516.5t213.5 568.5q0 32 -23.5 49.5t-52 20.5t-52 11t-23.5 24q0 14 6.5 17.5t33.5 3.5q7 0 47.5 -1.5t81.5 -1.5q36 0 82.5 2t99.5 2q40 0 40 -28 q0 -14 -10.5 -22.5t-33 -20.5t-39.5 -29q-9 -8 -16.5 -18t-12.5 -17.5t-12 -22.5l-12 -24l-13 -30l-15 -35l-369 -831q-172 -388 -192 -419q-9 -15 -20 -15q-6 0 -16 14t-22 38.5t-21 45.5l-20 49l-15 35l-53 126l-58 134l-50 113q-25 57 -41 87t-22 30q-19 0 -134 -276 t-129 -322q-3 -8 -7 -21q-12 -36 -18.5 -47.5t-18.5 -11.5q-19 0 -46 59t-95.5 229.5t-141.5 328.5q-116 252 -251 587q-29 71 -60.5 121t-59 72.5t-54 34.5t-47 13.5t-36.5 3.5t-24.5 9.5t-8.5 26.5z" />
<glyph unicode="X" horiz-adv-x="1538" d="M40 1436q0 17 15 21.5t72 4.5q39 0 79 -4t104 -4q12 0 109.5 2t105.5 2q17 0 24.5 -0.5t13.5 -5t6 -13.5q0 -19 -14 -27t-31.5 -8.5t-31.5 -10.5t-14 -33q0 -12 7 -30.5t23 -43.5l25 -42q10 -16 31 -46.5t24 -35.5l50 -76l43 -65l34 -51l29 -42q10 -15 20.5 -28t17 -18 t11.5 -5q10 0 18.5 9t27.5 36l59 84l74 104l66 97q34 51 53 86t19 49q0 33 -17 48.5t-37.5 17t-37.5 8.5t-17 25q0 21 31 21q47 0 90 -4t76 -4q115 0 151 4t42 4q32 0 32 -20q0 -16 -12.5 -25t-30.5 -13t-49.5 -17t-60.5 -33q-16 -11 -35.5 -32t-30.5 -36l-42 -54 q-319 -421 -319 -430q0 -4 1 -8.5t5 -11.5t9.5 -15.5l16.5 -24.5l24 -32l33 -48l44 -61l56 -81l70 -100q62 -90 145 -198t122 -141q6 -6 39.5 -12t61.5 -15.5t28 -26.5q0 -10 -3.5 -15.5t-19 -10t-44.5 -4.5q-38 0 -125 7.5t-93 7.5q-59 0 -105 -3t-71.5 -6t-32.5 -3 q-14 0 -21 5.5t-7 21.5q0 17 16.5 26t36 11t36 14t16.5 36q0 15 -13 41.5t-44 76.5l-64 96l-92 134l-107 159q-23 35 -33 35q-4 0 -9 -7t-17 -26l-18 -31q-45 -70 -130.5 -185.5t-128.5 -184.5t-43 -110q0 -55 111 -55q25 0 25 -35q0 -14 -14.5 -18.5t-49.5 -4.5 q-20 0 -96.5 4t-83.5 4q-18 0 -80 -4.5t-84 -4.5q-32 0 -45 6.5t-13 31.5q0 15 12 20.5t29.5 6.5t47 11t55.5 31q21 17 43.5 38.5t50.5 54.5l45 55q18 21 52 68l46 63l51 72l45 63l73 99l60 81q18 25 18 31q0 8 -22 38l-97 134l-160 226q-65 95 -140 174t-139 93 q-5 1 -18.5 3t-22.5 4t-19.5 6t-16 11t-5.5 17z" />
<glyph unicode="Y" horiz-adv-x="1458" d="M40 1410q0 22 24 28t103 6q13 0 57 -2t62 -2q22 0 83 1t91 1q104 0 104 -24q0 -14 -13.5 -23.5t-30 -14t-30 -13.5t-13.5 -22q0 -18 7 -39.5t21.5 -47t26.5 -43.5l30 -46l25 -37q69 -109 144 -209.5t86 -100.5q13 0 30.5 22.5t52 79.5t54.5 87q8 11 24 35l25 38l23 36 l24 36l19 32q11 19 17 32l14 28q6 15 8.5 26t2.5 20q0 41 -24 61t-52.5 21.5t-52.5 11t-24 31.5q0 24 57 24q10 0 38.5 -1t45.5 -1q48 0 114.5 -1t103.5 -1q52 0 76.5 -5.5t24.5 -24.5q0 -9 -12 -15t-35.5 -16.5t-40.5 -24.5q-63 -49 -140 -155.5t-161.5 -238.5t-130.5 -191 q-32 -41 -41 -90.5t-9 -167.5q0 -26 0.5 -114t0.5 -124v-48q0 -52 12.5 -87t33 -49.5t35.5 -19.5t29 -5q3 0 20 -1t21 -1q14 0 22 -9t8 -19q0 -20 -10.5 -26.5t-39.5 -6.5q-10 0 -89 1t-115 1q-73 0 -131 -4.5t-94 -4.5q-57 0 -57 23q0 19 10.5 26t37.5 9.5t40 6.5 q86 26 86 124q0 14 0.5 34.5t1.5 49t1.5 115.5t0.5 216q0 33 -5 57t-12 46t-35 66l-54 82l-91 134l-124 185q-48 73 -87.5 119.5t-71.5 66t-52 25t-48 5.5q-52 0 -52 27z" />
<glyph unicode="Z" horiz-adv-x="1153" d="M40 28q0 11 18 38l58 88q41 62 80 130q57 101 218 365l276 457q114 194 114 218q0 14 -20.5 17.5t-66.5 3.5q-113 0 -375 -7q-54 -1 -95.5 -21.5t-64 -49.5t-38.5 -57l-26 -48q-11 -20 -20 -20q-10 0 -18 8t-8 25q0 40 8.5 81.5t8.5 53.5q0 9 10 96q3 25 15 34.5t42 9.5 q12 0 69 -1.5t157 -3t216 -1.5q129 0 207.5 1t160.5 1q47 0 68 -6.5t21 -23.5q0 -27 -375.5 -645.5t-375.5 -639.5q0 -28 56 -34.5t180 -6.5q206 0 299.5 11.5t165.5 52.5q24 14 43 32l28 29q9 10 19 10q18 0 18 -22q0 -34 -65 -139l-10 -16l-9 -17q-3 -5 -10 -12.5 t-13.5 -10.5t-18 -5.5t-25.5 -2.5q-116 0 -204.5 -1t-169.5 -1q-310 0 -389 -1.5t-117 -1.5q-42 0 -42 33z" />
<glyph unicode="[" horiz-adv-x="587" d="M160 -168q0 153 6 638t6 697q0 91 -1 168.5t-1.5 122t-0.5 53.5q0 33 21 42.5t80 9.5h88q48 0 78 0.5t42 0.5h15q14 0 24 -12.5t10 -29.5q0 -42 -25 -42q-38 -1 -189 -1h-33q-8 0 -11.5 -3t-3.5 -14q0 -9 0.5 -50t1.5 -112.5t1 -155.5q0 -163 -4.5 -562.5t-4.5 -551.5 q0 -198 2 -300q0 -55 24 -55q21 0 99.5 0.5t85.5 0.5q28 0 38.5 -9t10.5 -35q0 -32 -22.5 -41t-85.5 -9h-183q-46 0 -57 20t-11 105v125z" />
<glyph unicode="\" horiz-adv-x="851" d="M40 1481q0 24 43 24q28 0 40.5 -7t19.5 -29l629 -1701q6 -16 17 -43t16.5 -43t5.5 -24q0 -33 -67 -33q-16 0 -26.5 11.5t-25.5 52.5l-623 1702q-29 78 -29 90z" />
<glyph unicode="]" horiz-adv-x="587" d="M60 -376q0 42 25 42q38 1 189 1h33q8 0 11.5 3t3.5 14q0 9 -1 50t-1.5 112.5t-0.5 155.5q0 163 4.5 562.5t4.5 551.5q0 198 -2 300q0 55 -24 55q-21 0 -99.5 -0.5t-85.5 -0.5q-28 0 -38.5 9t-10.5 35q0 45 34 46q137 4 257 4q46 0 57 -20t11 -105v-125q0 -153 -6 -638 t-6 -697q0 -91 0.5 -168.5t1.5 -122t1 -53.5q0 -33 -21 -42.5t-80 -9.5h-88q-48 0 -78 -0.5t-42 -0.5h-15q-14 0 -24 12.5t-10 29.5z" />
<glyph unicode="^" horiz-adv-x="681" d="M60 677q0 11 25 52l69 117q90 152 117 187t61 35t60 -33.5t105 -167.5l81 -138q23 -37 23 -55q0 -17 -37 -17q-6 0 -17 0.5t-14 0.5q-10 0 -17.5 3.5t-14.5 12.5t-10.5 14.5t-10.5 19.5l-9 18l-29 52l-24 46l-20 38q-10 19 -17 31l-14 24q-7 12 -11.5 19t-9 12.5t-8 7.5 t-6.5 2q-4 0 -9 -3.5t-11.5 -13t-13.5 -21.5l-18 -32l-22 -42l-30 -54l-35 -66q-2 -3 -7 -13t-7 -13.5t-7 -11.5t-9 -12l-9 -8q-6 -4 -12 -6t-13 -2q-3 0 -12.5 -0.5t-15.5 -0.5q-41 0 -41 18z" />
<glyph unicode="_" horiz-adv-x="437" d="M0 -77q0 16 1.5 23t10 13t26.5 6h366q23 0 28 -9t5 -34q0 -20 -2 -28.5t-11.5 -14t-29.5 -5.5h-358q-25 0 -30.5 9.5t-5.5 39.5z" />
<glyph unicode="`" horiz-adv-x="900" d="M225 1302q0 27 42.5 40.5t64.5 13.5q25 0 42 -39q46 -110 86 -183.5t54.5 -95.5t14.5 -32t-7.5 -16.5t-17.5 -6.5q-20 0 -80 64q-199 211 -199 255z" />
<glyph unicode="a" horiz-adv-x="945" d="M98 175q0 50 14.5 88.5t42 65t64 45.5t84.5 32.5t98 23.5l110 21q39 6 59 10q14 3 19.5 4.5t10.5 8.5t5 20q0 17 2 53t2 54q0 62 -22.5 108.5t-56.5 69.5t-64.5 33t-56.5 10q-146 0 -146 -123q0 -17 4 -42t4 -32q0 -42 -37 -42q-13 0 -31 3t-41.5 11t-39 25.5t-15.5 41.5 q0 80 106.5 152t236.5 72q63 0 113.5 -11t82 -26t54.5 -40.5t34 -45.5t16.5 -50t6.5 -45t1 -39q0 -148 -5 -234t-5 -148q0 -64 11.5 -105.5t28.5 -57t37.5 -23t37.5 -7.5t28.5 -6.5t11.5 -23.5q0 -42 -128 -42q-33 0 -61 11.5t-45.5 28t-30 33.5t-19.5 28.5t-9 11.5t-17 -13 t-40 -32t-56 -38t-73.5 -32t-83.5 -13q-69 0 -112.5 13.5t-77.5 48.5q-52 53 -52 144zM259 204q0 -70 40.5 -111.5t115.5 -41.5q39 0 70 8.5t50.5 20.5t33.5 32t21 36.5t10.5 41t4 37.5t0.5 33v148q0 17 -15 17q-3 0 -6 -0.5t-7.5 -1.5t-6.5 -1q-33 -6 -46 -8t-45.5 -9 t-48 -12t-43.5 -15t-42.5 -20.5t-33.5 -26.5t-28.5 -34t-16.5 -42t-7 -51z" />
<glyph unicode="b" horiz-adv-x="1121" d="M25 1415q0 15 16.5 28.5t34 20.5t46 17t35.5 13q15 6 47 21l54 25q22 9 31 9q11 0 21 -11t10 -27q0 -18 -0.5 -42t-1 -63t-1 -185t-0.5 -379q0 -73 15 -73q8 0 17.5 14t27.5 34t48 40t90 34t141 14q75 0 139 -24t108.5 -65t76 -95.5t46.5 -115t15 -123.5 q0 -59 -19 -133.5t-63.5 -155t-104.5 -125.5q-120 -91 -285 -91q-53 0 -102 12.5t-82 29.5t-58 34.5t-40 30t-18 12.5q-8 0 -23 -32.5t-35.5 -65t-42.5 -32.5q-15 0 -20 5.5t-5 19.5q0 30 4.5 98t4.5 70q0 69 9 242t9 299v506q0 187 -93 187h-20q-32 0 -32 22zM317 271 q0 -20 18.5 -54.5t52 -72.5t94.5 -65.5t134 -27.5q95 0 162.5 47t98 119.5t30.5 161.5q0 76 -24 149t-68 133t-114.5 97t-154.5 37q-95 0 -164 -58q-41 -34 -53 -54t-12 -41v-371z" />
<glyph unicode="c" horiz-adv-x="925" d="M80 394q0 126 57.5 235.5t168 179t250.5 69.5q72 0 153.5 -19.5t84.5 -46.5q5 -62 5 -98q0 -90 -22 -90q-12 0 -21.5 10t-22 27.5t-25.5 28.5q-47 39 -123 74t-148 35q-15 0 -37 -7.5t-52 -31t-55 -59t-42.5 -99.5t-17.5 -144q0 -158 102.5 -276t248.5 -118 q56 0 107 16.5t80 36.5l53 37q23 16 31 16q9 0 15 -6t6 -15q0 -7 -12.5 -27t-42.5 -48.5t-71 -54t-106 -44t-140 -18.5q-192 0 -308 116.5t-116 320.5z" />
<glyph unicode="d" horiz-adv-x="1157" d="M80 399q0 93 32 180.5t92 159.5t157 115.5t217 43.5q55 0 140.5 -30t91.5 -30q11 0 11 73q0 156 2 203.5t2 60.5q0 45 -0.5 66t-3.5 53.5t-9.5 47.5t-18.5 32t-31 23.5t-45 6.5h-22q-31 0 -37 2.5t-6 14.5v2q0 13 20 21t83 28t128 50l24 12q18 8 31.5 13t24.5 5 q25 0 25 -41q0 -6 -14 -174t-14 -270q0 -212 -1.5 -457t-1.5 -291q0 -141 13 -187.5t58 -59.5q8 -3 27 -6.5t30.5 -6t21.5 -10.5t10 -20q0 -7 -7 -12t-44.5 -12t-107.5 -13q-32 -3 -74.5 -12t-53.5 -9q-23 0 -23 22q0 7 -3 31t-3 45q0 35 -19 35q-6 0 -29.5 -21t-54.5 -45.5 t-89 -45.5t-125 -21q-78 0 -145 23.5t-114 64t-80 95t-49 116.5t-16 129zM227 495q0 -97 39.5 -191t119.5 -160t182 -66q92 0 167 47t75 115q1 119 1.5 196t1 98.5t0.5 33.5v22q0 75 -15.5 108.5t-42.5 49.5q-58 35 -126 62t-118 27q-132 0 -208 -97t-76 -245z" />
<glyph unicode="e" horiz-adv-x="954" d="M80 398q0 133 51 243.5t147 177t217 66.5q87 0 157 -31.5t109.5 -74.5t66 -92.5t35.5 -82t9 -45.5q0 -21 -19.5 -29t-63.5 -8h-465q-17 0 -37.5 0.5t-24.5 0.5q-16 0 -19 -4t-3 -20q0 -98 30 -178.5t79.5 -130t110 -76.5t125.5 -27q50 0 98.5 14t78.5 31.5t56.5 31.5 t36.5 14q8 0 13.5 -6t5.5 -13q0 -8 -14 -29t-45 -50t-71.5 -55t-102 -44.5t-129.5 -18.5q-85 0 -160.5 26t-137 77t-98 137t-36.5 196zM252 601q0 -16 5.5 -23t21.5 -7q55 0 203 6.5t157 6.5q28 0 35.5 5t7.5 19q0 18 -7 44t-24.5 58t-42 59t-63 45.5t-84.5 18.5 q-52 0 -94 -26t-66 -64t-36.5 -75.5t-12.5 -66.5z" />
<glyph unicode="f" horiz-adv-x="706" d="M60 788q0 38 17 50t68 12q5 0 20 -0.5t23 -0.5q24 0 30.5 11t6.5 36q0 121 32.5 227.5t83.5 178.5t112 125t118.5 77.5t103.5 24.5q48 0 78 -16t30 -41q0 -15 -12 -56q-1 -5 -4 -14.5t-4 -13.5t-3.5 -11t-4.5 -10t-5.5 -7.5t-7 -6t-8.5 -3t-11 -1.5q-7 0 -15 9l-18 18 q-10 10 -39 18.5t-73 8.5q-50 0 -89 -29.5t-62 -76t-38.5 -110t-21 -124.5t-5.5 -126q0 -8 0.5 -25.5t0.5 -25.5q0 -39 25 -39q102 0 196 18q9 2 22 11t20 9q10 0 10 -16q0 -32 -27 -79q-11 -18 -51 -18q-44 0 -68 -1t-92 -1q-33 0 -33 -21v-119q0 -4 9 -405q1 -33 2 -50.5 t8.5 -48t20 -46.5t38 -29t61.5 -13q12 0 19 -2.5t10 -7t4 -8.5t1 -11q0 -21 -22 -21q-1 0 -42.5 2.5t-91 5t-70.5 2.5q-37 0 -74 -5t-78 -5q-31 0 -31 28q0 9 16 18l35 17q18 9 34 36.5t16 70.5q0 15 -2 81.5t-4.5 196.5t-2.5 300q0 22 -7 27t-28 5q-9 0 -36 -3t-46 -3 q-20 0 -30 4t-12 9t-2 13z" />
<glyph unicode="g" horiz-adv-x="999" d="M80 -199q0 35 15 64t37 46t44 30l37 21q15 9 15 14q0 4 -10.5 12t-23.5 19t-23.5 35t-10.5 55q0 48 16.5 87.5t37.5 59.5l36 34q17 16 17 21q0 8 -14.5 19.5t-35 29.5t-41 44t-35 73.5t-14.5 107.5q0 36 8.5 73.5t32.5 82t61.5 78.5t103 56.5t148.5 22.5 q62 0 112.5 -12.5t74.5 -27.5l44 -28q20 -13 28 -13q11 0 24.5 4t23.5 9l28 12q18 8 28 12q18 8 29 25t15 33t11.5 28.5t18.5 12.5q27 0 27 -18q0 -50 -15 -105.5t-31 -79.5q-27 -40 -84 -65q23 -61 23 -101q0 -130 -99 -220.5t-240 -90.5q-54 0 -101 8.5t-55 8.5 q-5 0 -12 -1t-22.5 -6.5t-27.5 -15t-21.5 -29.5t-9.5 -47q0 -30 13 -50t33.5 -31.5t59 -17.5t74 -7.5t94.5 -1.5h95q32 0 56.5 -1.5t62.5 -6.5t66 -17t55 -31t41.5 -50.5t14.5 -73.5q0 -64 -13 -95q-40 -100 -161 -159.5t-280 -59.5q-66 0 -128 10.5t-121.5 34t-95.5 69.5 t-36 110zM199 -187q0 -91 75 -136.5t187 -45.5q126 0 227.5 52.5t101.5 133.5q0 25 -8 44t-25.5 30t-35 18t-48.5 10t-52 3.5t-58 0.5h-18q-65 0 -159 14l-94 14q-21 0 -57 -41t-36 -97zM282 594q0 -123 59 -205t147 -82q92 0 141 70.5t49 173.5q0 73 -24 138t-74 109 t-116 44q-76 0 -129 -65t-53 -183z" />
<glyph unicode="h" horiz-adv-x="1202" d="M41 1428q0 17 21 28t61.5 21.5t58.5 18.5l34 15q22 10 36 15l30 13q17 7 28.5 10t18.5 3q27 0 27 -46q0 -10 -6.5 -49t-7.5 -78q-7 -596 -16 -597q0 -44 19 -44q5 0 30 24l57 52q32 28 87 51.5t114 23.5q165 0 257.5 -99t92.5 -305v-296q0 -14 2.5 -31t9.5 -37 t21.5 -34.5t34.5 -16.5q110 -11 110 -44q0 -32 -64 -32q-10 0 -79 5t-92 5q-18 0 -85 -3t-73 -3q-47 0 -47 20q0 18 11.5 25.5t27.5 9.5t32 7.5t27.5 26.5t11.5 60q0 8 0.5 20.5t1.5 33.5t1.5 95t0.5 191q0 125 -76 216.5t-178 91.5q-92 0 -198 -81q-26 -20 -37 -51.5 t-15.5 -102t-4.5 -225.5v-46q0 -93 15 -149t66 -78q14 -6 34.5 -9t34.5 -3.5t24.5 -6.5t10.5 -19q0 -9 -6.5 -16.5t-15.5 -7.5q-1 0 -53 2l-106 6q-54 2 -59 2q-14 0 -72 -5t-74 -5q-27 0 -39.5 3t-13.5 5.5t-2 11.5q0 20 25 28q58 17 75.5 52.5t17.5 104.5l8 699 q0 21 0.5 53t0.5 46q0 273 -10 331q-11 56 -43 67q-13 4 -34 4q-18 0 -25.5 0.5t-8.5 0.5q-35 0 -35 22z" />
<glyph unicode="i" horiz-adv-x="581" d="M73 781q0 9 5.5 15.5t20.5 13t31.5 12t48 17t60.5 23.5q22 9 41.5 18.5t26.5 12.5t15.5 5t20.5 2q11 0 20 -9.5t9 -29.5q0 -11 -5.5 -45.5t-5.5 -53.5v-562q0 -52 13 -85t32.5 -44.5t42.5 -16.5t42.5 -4.5t32.5 -6.5t13 -23q0 -34 -35 -34q-4 0 -14 0.5t-16 0.5 q-45 0 -76.5 2.5t-69.5 2.5q-49 0 -91.5 -2.5t-53.5 -2.5q-83 0 -83 28q0 11 8.5 23t22.5 16q43 14 53 24q23 22 28 119q3 59 3 224v182q0 48 -7.5 79.5t-22 45t-27.5 18.5t-33 8t-29 6q-21 8 -21 21zM191 1209q0 24 35 67.5t66 43.5q34 0 65 -41t31 -75q0 -33 -39.5 -72.5 t-57.5 -39.5q-40 0 -70 43t-30 74z" />
<glyph unicode="j" horiz-adv-x="575" d="M48 -281q0 59 45 59q22 0 62 -43.5t55 -43.5q18 0 28 28t15.5 100.5t5.5 201.5v622q0 23 -3 39t-13.5 37t-37 32.5t-68.5 11.5q-32 0 -32 21q0 12 17 17.5t65 19.5t97 37q15 7 39 19.5t37.5 18.5t20.5 6q25 0 25 -47v-24q0 -18 -2 -51t-2 -44v-664q0 -63 -7 -124.5 t-26 -127.5t-48.5 -116t-78 -82t-110.5 -32q-81 0 -81 56q0 12 -1.5 37t-1.5 36zM237 1210q0 28 32.5 66.5t64.5 38.5q34 0 66 -36.5t32 -68.5q0 -34 -36 -71.5t-53 -37.5q-41 0 -73.5 39.5t-32.5 69.5z" />
<glyph unicode="k" horiz-adv-x="1117" d="M1 1412q0 13 21 24t79 29l37 11q19 5 26 7.5t15 5t14 5.5l11 7q6 3 20 12t26 16q43 27 68 27q29 0 29 -38q0 -4 -2 -23.5t-5 -57.5t-6 -92.5t-5 -146t-2 -199.5q0 -69 -3 -209t-3 -210v-43q0 -86 8 -86q13 0 22 6t22.5 19.5t21.5 20.5q287 228 287 261q0 17 -14.5 28.5 t-31.5 16.5t-31.5 14t-14.5 21q0 20 25 20q4 0 16 -0.5t21 -0.5q297 9 300 9q33 0 43.5 -4t10.5 -14q0 -14 -12.5 -20.5t-32.5 -9.5t-59 -18t-80 -41q-20 -13 -97 -71q-178 -135 -193 -152q-11 -11 -11 -25q0 -21 21 -47q192 -233 320 -344q44 -38 88.5 -55.5t70.5 -17 t42 -3.5t16 -20q0 -23 -17 -28.5t-66 -5.5q-14 0 -108.5 1t-104.5 1q-17 0 -54.5 32.5t-87.5 89.5l-90 103l-89 107l-57 71q-11 12 -23 12q-21 0 -42 -28t-21 -65q0 -7 2 -35q7 -145 11 -158q1 -5 19 -28q3 -5 7 -10q12 -19 52 -27l70 -16q32 -6 32 -22q0 -13 -15 -20.5 t-27.5 -9.5t-20.5 -2q-4 0 -82 5.5t-117 5.5q-26 0 -63.5 -4t-85.5 -4q-49 0 -49 25q0 9 6.5 16t13 9.5t18 5.5t13.5 4q47 18 59 53t12 135q0 22 1 53.5t1 37.5l2 908q0 155 -97 155q-7 0 -19.5 -1t-21.5 -1q-39 0 -39 23z" />
<glyph unicode="l" horiz-adv-x="572" d="M40 1420q0 11 3 17t14 11t24 8.5t41.5 12.5t57.5 21q17 7 52 23.5t60 25.5t43 9q25 0 25 -38q0 -9 -4 -49t-7.5 -110.5t-3.5 -152.5v-115q0 -97 -3 -163.5t-3 -108.5v-611q0 -24 2 -41t12 -39t26.5 -36t48.5 -23.5t77 -9.5q10 0 18.5 -10t8.5 -21q0 -28 -62 -28 q-18 0 -95.5 7.5t-111.5 7.5q-54 0 -102 -8.5t-64 -8.5q-15 0 -24.5 7t-9.5 13q0 17 9.5 24.5t31 12.5t29.5 9q35 16 45 44.5t10 87.5q0 8 -0.5 25t-0.5 28v153q0 76 4 402t4 467q0 46 -15.5 85t-34.5 47q-17 7 -82 7q-23 0 -23 18z" />
<glyph unicode="m" horiz-adv-x="1693" d="M63 794q0 19 24 27.5t73 19t83 25.5l27 12l23 10q7 3 18 5.5t23 2.5q24 0 24 -58q0 -14 -5 -46t-5 -40q0 -24 13 -24q3 0 13.5 15t30.5 36.5t48.5 43t77 36.5t106.5 15q62 0 110 -16.5t73 -40.5t41.5 -48t25 -40.5t12.5 -16.5q3 0 27 26l56 58q32 32 86.5 58t111.5 26 q77 0 138 -25.5t99 -69.5t59.5 -97t28.5 -115q12 -110 12 -259v-66q0 -93 10 -134.5t47 -52.5l25 -4q25 -4 39.5 -12t14.5 -23q0 -30 -68 -30q-12 0 -62 4.5t-72 4.5q-31 0 -80.5 -4.5t-68.5 -4.5q-49 0 -49 20q0 17 20 27.5t44 21t31 26.5q8 19 8 94v32q0 70 -0.5 122.5 t-1 96t-3.5 76t-3.5 56t-6.5 43t-7.5 30t-11 24.5t-12 18.5t-15.5 19.5l-18 21q-54 65 -152 65q-47 0 -99 -24.5t-82 -50.5t-30 -37q0 -6 3 -28.5t6 -80.5t3 -150q0 -21 -0.5 -79t-0.5 -95q0 -93 28 -137.5t115 -57.5q14 -2 22.5 -9t10.5 -12.5t2 -10.5q0 -23 -38 -23 q-14 0 -65 5.5t-84 5.5q-21 0 -100.5 -5.5t-86.5 -5.5q-15 0 -29.5 6.5t-14.5 20.5t8 21t38 19q1 0 3 1q7 2 11 4t11 10.5t11.5 20.5t8 35.5t3.5 55.5v16q0 9 0.5 22t0.5 61v124q0 44 -0.5 72.5t-1 36.5t-1 12.5t-0.5 7.5q0 108 -56 174.5t-154 66.5q-86 0 -153.5 -46 t-67.5 -105q0 -5 0.5 -14.5t0.5 -13.5v-384q0 -50 12.5 -84.5t31.5 -49t41.5 -23t41.5 -10t31.5 -7t12.5 -16.5q0 -13 -1.5 -18.5t-11 -9t-30.5 -3.5q-8 0 -64 3.5t-108 3.5q-47 0 -100 -3.5t-62 -3.5q-22 0 -33.5 5.5t-13 10.5t-1.5 15q0 14 11 20t25 8t31 17t26 45 q16 52 16 313q0 40 -0.5 123.5t-0.5 125.5q0 40 -14 60.5t-34.5 24t-41 4t-34.5 6t-14 23.5z" />
<glyph unicode="n" horiz-adv-x="1210" d="M63 798q0 12 13.5 18t44 11t43.5 9q38 10 80 27.5t68 29.5t34 12h4q19 0 19 -24q0 -5 -2.5 -37t-2.5 -51q0 -54 11 -54q5 0 13.5 11t30.5 33t53 41q93 56 178 56q83 0 147.5 -25.5t101.5 -63.5t61.5 -86.5t32.5 -89.5t8 -78q0 -9 0.5 -20t1 -28.5t1 -81t0.5 -163.5v-46 q0 -77 20.5 -106t103.5 -42q25 -4 33 -11t8 -20q0 -22 -41 -22q-47 0 -98 6t-69 6q-29 0 -89 -4.5t-69 -4.5q-41 0 -41 26q0 10 7.5 16.5t16 9t18 4t10.5 1.5q44 14 44 137v278q0 158 -78 238t-187 80q-88 0 -153.5 -46.5t-75.5 -77.5q-7 -19 -12 -138t-5 -186v-78 q0 -41 1.5 -67t8.5 -54t19 -44t33.5 -27.5t52.5 -13.5q85 -7 85 -31q0 -27 -40 -27q-35 0 -67 4t-81 4q-53 0 -140.5 -4t-88.5 -4q-31 0 -31 20q0 17 10 21.5t25 7t30.5 13t27.5 49.5t14 107q4 114 4 152v296q0 66 -22.5 88t-64.5 22h-20q-40 0 -40 22z" />
<glyph unicode="o" horiz-adv-x="1121" d="M80 415q0 89 31 171t89 149t152.5 107t210.5 40q92 0 176.5 -29.5t152.5 -84.5t108.5 -143t40.5 -196q0 -111 -42.5 -202t-112.5 -147.5t-157 -86.5t-181 -30q-113 0 -204.5 38.5t-147.5 103t-86 144t-30 166.5zM241 486q0 -107 33 -197t86 -146t118 -87t132 -31 q117 0 196.5 88.5t79.5 253.5q0 84 -23.5 164t-67.5 147t-117 108t-163 41q-48 0 -93.5 -18.5t-87.5 -56.5t-67.5 -107t-25.5 -159z" />
<glyph unicode="p" horiz-adv-x="1137" d="M63 789q0 10 17 16t71 23t113 45l34 16l23 11l13 7q7 3 10 3.5t7 0.5q26 0 26 -27q0 -43 -4 -79t-4 -42q0 -15 5 -15q3 0 17.5 14.5t39.5 35t58.5 41.5t84.5 35.5t107 14.5q93 0 166.5 -34.5t118 -92.5t68 -131t23.5 -154q0 -89 -29.5 -176.5t-83 -159t-139 -116 t-188.5 -44.5q-74 0 -127.5 12.5t-75 27t-38 27t-24.5 12.5q-6 0 -6 -17q1 0 1 -225v-26q0 -45 33 -98q19 -28 51.5 -38.5t59.5 -8t47.5 -3.5t20.5 -28q0 -25 -69 -25q-13 0 -66 3.5t-147 3.5q-37 0 -79.5 -3t-50.5 -3q-45 0 -57.5 4.5t-12.5 15.5q0 14 9.5 21.5t23.5 9.5 t31 11.5t31 26t23.5 55.5t9.5 97v39q0 242 3 402.5t3 163.5v45q0 61 -0.5 93t-3.5 70t-9 55.5t-16.5 34.5t-27 23t-39.5 6q-25 0 -36.5 3.5t-13.5 7.5t-2 13zM347 394q0 -20 1 -51t1 -52q0 -57 21 -102t52.5 -72t73 -44t79.5 -23.5t75 -6.5q90 0 153 48.5t91.5 122.5 t28.5 164q0 102 -35.5 193.5t-110.5 153.5t-175 62q-105 0 -187 -66q-29 -23 -41.5 -46t-19.5 -87.5t-7 -193.5z" />
<glyph unicode="q" horiz-adv-x="1144" d="M80 361q0 107 31 196.5t82 149t118 100.5t136.5 59t140.5 18q47 0 92.5 -10.5t77 -26t55.5 -30.5t37 -25l13 -11q8 0 23.5 32.5t35.5 65t41 32.5q18 0 18 -33q0 -18 -4.5 -55.5t-9 -124t-4.5 -223.5q0 -165 3 -253t3 -385q0 -56 11 -95t27.5 -55.5t36 -27.5t36 -13.5 t27.5 -9t11 -19.5q0 -24 -36 -24q-4 0 -22.5 0.5t-51 1t-70.5 0.5q-62 0 -103.5 -1.5t-56.5 -3.5l-24 -4q-10 -1 -16 -1q-29 0 -39 7.5t-10 21.5q0 15 18.5 21.5t45.5 11.5t39 13q15 10 20.5 41.5t5.5 133.5q0 49 1.5 110.5t1.5 76.5q0 94 -13 94q-10 0 -34.5 -26t-56 -56.5 t-96 -56.5t-144.5 -26q-150 0 -248 81q-52 43 -85 91t-45.5 96.5t-15.5 76t-3 65.5zM223 444q0 -100 35 -178t88 -120.5t106.5 -64t100.5 -21.5q53 0 95 8.5t69 22t47 34t30 39t16 43t7 41t1 37.5v334q0 55 -46 104t-109.5 75.5t-121.5 26.5q-34 0 -72 -9.5t-83 -36 t-80.5 -67t-59 -110.5t-23.5 -158z" />
<glyph unicode="r" horiz-adv-x="769" d="M46 778q0 22 27.5 34.5t101.5 35t140 53.5q20 9 29 9q26 0 26 -41q0 -7 -1 -26t-1 -30q0 -42 2 -61t5 -23.5t10 -4.5q4 0 22 26t41.5 57t65 57t87.5 26q9 0 16 -0.5t15 -3t11.5 -3t12 -6t11 -7t14 -9.5t15.5 -10q43 -29 43 -59q0 -23 -6.5 -43.5t-16 -33t-19.5 -21.5 t-17.5 -12.5t-9.5 -3.5q-19 0 -37.5 12t-46.5 24.5t-71 12.5q-56 0 -104.5 -45t-48.5 -81v-213q0 -75 0.5 -120.5t1.5 -57t1.5 -20t0.5 -18.5q0 -43 28.5 -73.5t67.5 -36.5q11 -2 30 -4t30 -3.5t23 -4.5t17.5 -8.5t5.5 -14.5q0 -33 -26 -33q-35 0 -94 5t-80 5 q-65 0 -135 -5.5t-78 -5.5q-21 0 -31.5 4t-12 8t-1.5 13q0 28 27 35q52 13 64 54t12 170q0 134 -0.5 219.5t-1.5 109.5t-1.5 38.5t-0.5 23.5q0 16 -3 27.5t-12.5 23.5t-31.5 18.5t-55 6.5q-3 0 -11 1t-12 1q-38 0 -38 32z" />
<glyph unicode="s" horiz-adv-x="804" d="M113 89v178q0 22 9.5 37t20.5 15q16 0 24.5 -7.5t10.5 -17.5l8 -28q5 -20 10 -34q10 -26 24.5 -52.5t40.5 -60t64.5 -54.5t83.5 -21q27 0 55 7t57.5 22t48 45t18.5 71q0 50 -25.5 87t-65.5 60t-89 42l-98 41q-49 21 -89 48t-65.5 71.5t-25.5 104.5q0 114 92 184t217 70 q60 0 105.5 -6.5t68.5 -15.5t37.5 -21t18 -19.5t3.5 -13.5q0 -1 3.5 -55t3.5 -67q0 -34 -7.5 -47t-28.5 -13q-9 0 -21 19l-29 48q-17 27 -40.5 54.5t-64.5 47t-92 19.5q-59 0 -98 -29t-39 -75q0 -25 6 -46t21 -37.5t27 -28t38 -23.5t39.5 -17.5t45.5 -16.5t42 -15 q147 -55 198.5 -115.5t51.5 -179.5q0 -56 -31.5 -113t-78.5 -100q-72 -64 -203 -64q-37 0 -77 7.5t-65 16t-54 20t-33 12.5l-20 6l-16 5q-5 2 -13 5.5t-11 7t-7 9.5t-5 14t-1 19z" />
<glyph unicode="t" horiz-adv-x="701" d="M56 786q0 14 10 24.5t40 34.5t58 53q31 32 64.5 78t53.5 67.5t38 21.5q22 0 22 -48q0 -18 -4 -57t-4 -58q0 -30 11 -35.5t73 -5.5h72q59 0 93 6.5t46.5 13.5t18.5 7q19 0 19 -21q0 -16 -26.5 -64.5t-38.5 -48.5q-30 0 -58.5 1.5t-49.5 2.5t-39 2.5t-30.5 3t-21 3 t-13.5 1.5l-4 1q-40 0 -51 -12.5t-11 -56.5q0 -23 -4.5 -172t-4.5 -209q0 -68 6 -108t24.5 -71.5t53.5 -44.5t92 -13q43 0 95.5 19t57.5 19q11 0 15.5 -4t4.5 -19q0 -17 -29.5 -44t-83.5 -50.5t-110 -23.5q-74 0 -128 18t-82 43t-44 61t-19.5 62t-3.5 56v30q0 80 2 195 t4 198t2 85q0 20 -8.5 26t-34.5 6q-8 0 -21 -0.5t-17 -0.5q-19 0 -27 5.5t-8 22.5z" />
<glyph unicode="u" horiz-adv-x="1180" d="M59 806q0 23 27 34t110 11q15 0 64 5.5t53 5.5q35 0 41.5 -14.5t6.5 -88.5q0 -41 -5 -140t-5 -220q0 -78 15 -138t38 -95t54.5 -57.5t60 -30.5t58.5 -8q132 0 191.5 55.5t59.5 193.5l-4 284q0 103 -16 138t-79 41q-45 4 -45 26q0 49 181 49q17 0 41 4.5t31 4.5 q32 0 41.5 -11t9.5 -46q0 -2 -1 -31t-3 -78.5t-3.5 -111t-2.5 -143t-1 -159.5q0 -125 11.5 -169.5t45.5 -44.5q10 0 28 0.5t26 0.5q48 0 48 -25q0 -24 -14.5 -30t-60.5 -6q-36 0 -119 -11.5t-88 -11.5q-15 0 -23 53t-13 53q-4 0 -28 -20.5t-56.5 -45t-90.5 -45t-121 -20.5 q-330 0 -330 356q0 198 1 281t1 88q0 41 -20.5 65.5t-39.5 24.5q-8 0 -18 -0.5t-19 -0.5q-38 0 -38 28z" />
<glyph unicode="v" horiz-adv-x="1072" d="M40 851q0 23 40 23q4 0 24 -2t52.5 -4t68.5 -2q29 0 60 -0.5t60 -0.5q13 0 40 2.5t38 2.5q37 0 37 -22t-12 -28.5t-37 -6.5q-18 0 -29 -1t-26 -6t-22.5 -17.5t-7.5 -32.5q0 -13 5 -31t19 -50l28 -61l40 -88l48 -108q10 -21 26 -58l26 -62l24 -50q12 -26 21 -39.5 t14 -13.5q20 0 125 247.5t105 295.5q0 34 -13 51t-32 19.5t-38 2.5t-32 6.5t-13 26.5q0 27 65 27q14 0 60 -1.5t76 -1.5q22 0 54 1t41 1q35 0 46 -6t11 -24q0 -11 -10.5 -17t-31 -19t-38.5 -38q-50 -70 -147 -274l-177 -362q-79 -158 -110 -158q-11 0 -16.5 3t-14 16 t-23.5 48l-40 90l-181 411q-42 93 -79 155.5t-58.5 85t-37.5 34t-22 17t-6 19.5z" />
<glyph unicode="w" horiz-adv-x="1532" d="M40 851q0 23 40 23q4 0 24 -2t52.5 -4t68.5 -2q29 0 50 1t50 1q62 0 79.5 -3t17.5 -19q0 -13 -14 -20t-31 -10t-31 -19.5t-14 -47.5q0 -75 114 -331l24 -56l24 -57l20 -46q11 -23 19 -34.5t13 -11.5q2 0 4.5 2t5.5 7l8 10q3 6 8 15l9 17l11 20l11 21l13 24l12 25l32 62 l26 50l19 36q10 20 14 29l9 20q5 11 6 19l2 14q1 8 1 18q0 15 -19 62t-40 78q-23 33 -46.5 53t-37.5 25t-23 11.5t-9 18.5q0 19 29 19q55 0 83 -2.5t166 -2.5q29 0 41 1.5t22 1.5q45 0 45 -30q0 -12 -4.5 -14.5t-18.5 -4.5q-5 -1 -8 -1q-17 -2 -28 -5.5t-21.5 -16.5 t-10.5 -35q0 -30 34 -129.5t85 -212.5q14 -31 38 -91t37.5 -88.5t22.5 -28.5q13 0 60.5 108.5t90 236.5t42.5 174q0 38 -17.5 57t-38 21.5t-38 11.5t-17.5 28q0 18 42 18h235q38 0 48.5 -4.5t10.5 -22.5q0 -12 -8.5 -19t-20.5 -10.5t-29.5 -15.5t-31.5 -32 q-19 -26 -35.5 -60.5t-36.5 -83.5l-82 -185l-141 -309q-56 -119 -73 -138q-10 -12 -20 -12q-27 0 -80 133l-102 264q-48 133 -62 133q-8 0 -68 -130.5t-128.5 -261.5t-97.5 -131q-16 0 -30.5 28.5t-67.5 165.5l-146 368l-26 69q-13 38 -20.5 57.5t-21 45t-33.5 48t-52 48.5 q-8 7 -17 12.5t-13 7.5t-6.5 7t-2.5 14z" />
<glyph unicode="x" horiz-adv-x="1123" d="M60 29q0 9 5 13t14 6.5t30 11.5t45 24q35 22 73 53t76.5 69t64.5 66l62 69l46 51q8 10 8 21q0 9 -23 38.5t-70.5 85.5t-80.5 99q-47 61 -94.5 103t-63.5 45q-38 7 -63.5 25t-25.5 36q0 11 9 18t21 7q43 0 82 -4.5t77 -4.5q32 0 84 3.5t82 3.5q33 0 43.5 -5.5t10.5 -20.5 q0 -9 -10.5 -15.5t-23.5 -9.5t-23.5 -12t-10.5 -22q0 -7 3.5 -15.5t10.5 -19.5l13 -21l17 -25l18 -23q98 -138 110 -150q10 -10 16 -10q7 0 20 16l63 80q67 83 79.5 103.5t12.5 44.5q0 25 -23.5 38t-47 21t-23.5 21q0 7 2 11.5t15 9t38 4.5q17 0 59.5 -0.5t69.5 -0.5 q17 0 62.5 1.5t77.5 1.5q14 0 26.5 -7.5t12.5 -18.5q0 -13 -11.5 -19.5t-30.5 -11.5t-55.5 -28.5t-76.5 -63.5l-159 -165q-76 -83 -76 -93q0 -7 25 -35l161 -188q1 -2 22 -27l28 -33l27 -30q21 -23 34 -34l34 -27q21 -16 40.5 -25.5t40.5 -15.5q11 -3 14.5 -4.5t6.5 -6.5 t3 -14q0 -15 -12 -20t-58 -5q-11 0 -51 2t-70 2q-25 0 -64 -2t-57 -2h-21q-39 0 -54.5 3.5t-15.5 16.5q0 8 11 13.5t25 9t25 13t11 23.5q0 27 -29 68.5t-79 100t-74 94.5q-12 18 -18 18t-22 -20l-60 -72l-52 -62q-18 -20 -32 -46t-14 -48q0 -31 15 -45t33.5 -14.5t33.5 -7.5 t15 -26q0 -8 -3 -11t-21.5 -5.5t-59.5 -2.5q-17 0 -50 3t-57 3q-22 0 -57 -4t-51 -4q-90 0 -90 33z" />
<glyph unicode="y" horiz-adv-x="1020" d="M40 844q0 12 14 18t27 6q58 0 119 -2t102 -2q34 0 62 2t54 2q14 0 25 -7.5t11 -15.5q0 -9 -1.5 -15.5t-6 -10.5t-7.5 -6t-13 -3l-14 -2h-18h-19q-33 -1 -33 -56q0 -33 19 -83.5t80 -186.5l23 -50q10 -21 26 -58l26 -60l23 -50q12 -26 21 -39t14 -13q13 0 95 236t82 286 q0 34 -13 51.5t-31.5 21t-37 4.5t-31.5 8.5t-13 25.5q0 25 39 25q30 0 80 -1t66 -1q20 0 71 1t57 1q42 0 42 -26q0 -16 -14.5 -22.5t-36 -13t-31.5 -20.5q-35 -50 -112 -257l-181 -485l-35 -97l-32 -84l-25 -70l-21 -59l-18 -46.5t-15.5 -36t-13 -24t-11.5 -15t-10 -4.5 q-2 0 -7 -0.5t-25.5 -1t-61.5 -0.5q-39 0 -39 27q0 6 29 43l64 85q35 47 64 112t29 119q0 59 -116 311.5t-203 416.5q-22 42 -46 63.5t-38.5 24.5t-24 10t-9.5 24z" />
<glyph unicode="z" horiz-adv-x="775" d="M82 30q0 10 1.5 17t3 13t8.5 16l12 18q5 8 19 28l26 36q374 539 374 572q0 9 -47 9q-19 0 -67.5 -3t-105.5 -7t-76 -5q-29 -2 -51.5 -20.5t-33.5 -39.5t-22.5 -38.5t-20.5 -17.5q-16 0 -16 22q0 37 5 76.5t13 80.5t9 49q2 15 13.5 25.5t26.5 10.5q6 0 34.5 -1.5t78 -3 t107.5 -1.5q69 0 169.5 3t131.5 3q9 0 16.5 -6t7.5 -15q0 -15 -11.5 -32t-28 -35.5t-20.5 -25.5q-85 -133 -193 -286l-156 -224q-48 -73 -48 -98q0 -18 102 -18q21 0 55 1t44 1q45 0 78.5 6t52.5 13.5t32.5 22.5t18.5 25.5t12.5 29t11.5 27.5q5 11 8 15.5t9.5 9t15.5 4.5 q12 0 22.5 -7.5t10.5 -21.5q0 -1 -8 -22l-18 -50q-12 -31 -22 -52q-7 -17 -16.5 -54t-20 -56.5t-27.5 -19.5q-58 0 -125.5 0.5t-108.5 0.5q-12 0 -64 -1t-84 -1h-35q-35 0 -49.5 -1t-15.5 -1q-38 0 -38 29z" />
<glyph unicode="{" horiz-adv-x="559" d="M85 547q0 22 12 35.5t26 19t26 19.5t12 37q0 128 -4 410t-4 435q0 20 11 29t26 9q19 0 60 -8.5t68 -8.5q42 0 83 5.5t54 5.5q37 0 37 -20q0 -26 -24 -49t-58.5 -36t-67.5 -20.5t-55 -7.5q-15 0 -15 -18q-6 -590 -6 -861q0 -89 3 -350t3 -389q0 -9 22 -14l62 -14 q40 -10 67 -24q71 -41 71 -84q0 -19 -16 -19q-3 0 -23.5 4.5t-55 9.5t-70.5 5q-62 0 -101 -14.5t-52 -14.5q-11 0 -18 7t-7 17q0 138 3 397.5t3 372.5q0 28 -11.5 47.5t-24.5 28t-24.5 23.5t-11.5 35z" />
<glyph unicode="|" horiz-adv-x="428" d="M160 -178q0 153 6 643t6 702q0 91 -1 168.5t-1.5 122t-0.5 53.5q0 26 12.5 38t40.5 12q27 0 35.5 -11.5t8.5 -39.5q0 -6 -0.5 -22t-0.5 -26q0 -9 0.5 -50t1.5 -112.5t1 -155.5q0 -163 -4.5 -567.5t-4.5 -556.5q0 -198 2 -300q0 -3 0.5 -22t0.5 -32v-16q0 -19 -1 -29.5 t-4 -23.5t-10 -19t-19 -6q-46 0 -57 20t-11 105v125z" />
<glyph unicode="}" horiz-adv-x="559" d="M65 -352q0 43 71 84q27 14 66 24l62 14q23 5 23 14q0 128 3 389t3 350q0 271 -6 861q0 18 -15 18q-22 0 -55 7.5t-67.5 20.5t-58.5 36t-24 49q0 20 37 20q13 0 54 -5.5t83 -5.5q27 0 68 8.5t60 8.5q15 0 26 -9t11 -29q0 -153 -4 -435t-4 -410q0 -23 12 -37t26 -19.5 t26 -19t12 -35.5q0 -20 -11 -35t-25 -23.5t-25 -28t-11 -47.5q0 -113 3 -372.5t3 -397.5q0 -10 -7 -17t-18 -7q-13 0 -52 14.5t-101 14.5q-36 0 -70.5 -5t-55 -9.5t-23.5 -4.5q-16 0 -16 19z" />
<glyph unicode="~" horiz-adv-x="779" d="M60 353q0 3 11 22.5t32 47.5t46.5 54.5t59 45.5t65.5 19q47 0 120 -46t120 -46q33 0 63.5 16t46.5 34l32 35q15 16 22 16q19 0 30 -9t11 -22q0 -4 -11.5 -23t-34.5 -46.5t-51.5 -53t-66.5 -43.5t-76 -18q-46 0 -85.5 23.5t-75 47t-70.5 23.5q-32 0 -60 -17t-43 -38 l-27 -38q-13 -17 -18 -17q-40 0 -40 33z" />
<glyph unicode="&#xa1;" horiz-adv-x="566" d="M120 1260q0 16 14 30t35.5 28.5t28.5 21.5q8 8 23 28.5t28 32t25 11.5q13 0 41 -23t44 -45q6 -8 24.5 -24t30.5 -32t12 -32q0 -5 -2.5 -10.5t-9 -12.5t-12.5 -12l-17 -14l-18 -15q-8 -7 -25 -29t-33 -35.5t-33 -13.5q-5 0 -9.5 1.5t-10.5 6.5l-8 6q-3 3 -10 11t-10 11 q-22 23 -45.5 42.5t-35 27.5t-19.5 18t-8 22zM171 41q0 7 1 15t4 26.5t5 37.5q9 73 25.5 333t46.5 503q3 22 28 22q23 0 25 -19q18 -211 27 -335t10 -154.5t1.5 -59.5t2.5 -62q3 -48 8.5 -112.5t8 -102.5t2.5 -81q0 -36 -27.5 -57t-74.5 -21q-48 0 -70.5 14.5t-22.5 52.5z " />
<glyph unicode="&#xa2;" horiz-adv-x="925" d="M80 394q0 153 85 280t229 177q19 7 37.5 11.5t24 5t11 6t6 12t0.5 25.5v75q0 9 9.5 14.5t22.5 5.5q19 0 34.5 -5t15.5 -13l-1 -95q0 -6 1 -9t5 -4.5t9.5 -2t16.5 -1t23.5 -1.5t33 -4t43.5 -7q51 -9 83 -26q14 -7 18.5 -13t8 -31t3.5 -80q0 -90 -22 -90q-13 0 -22.5 10 t-19 26t-43.5 42.5t-88 52.5q-31 15 -38 15q-13 0 -13 -41q-1 -225 -3 -372l-2 -195v-70q0 -15 6.5 -21.5t29.5 -6.5q56 0 107 16.5t80 36.5l53 37q23 16 31 16q9 0 15 -6t6 -15q0 -7 -11 -24.5t-35.5 -42.5t-58.5 -49t-86 -44.5t-111 -27.5q-3 0 -8 -1q-14 -1 -17 -5 t-3 -22q0 -5 0.5 -51.5t0.5 -67.5q0 -22 -43 -22q-36 0 -36 18v131q0 8 -0.5 11.5t-4 5.5t-8 2t-14 1t-21.5 2t-32 5.5t-42 12.5q-125 42 -195.5 149t-70.5 264zM233 458q0 -70 21 -133t51 -104t63.5 -71t57 -43.5t32.5 -13.5q11 0 11 30q0 65 3 647q0 21 -5 25t-30 4 q-15 0 -37 -7.5t-52 -31t-55 -59t-42.5 -99.5t-17.5 -144z" />
<glyph unicode="&#xa3;" horiz-adv-x="1140" d="M40 88q0 46 35 81t106 35q34 0 72 -10.5t63.5 -21.5t28.5 -11q11 7 26 54.5t15 89.5q0 108 -100 332q-2 5 -6 14t-6 11l-4 8q-3 5 -5 6t-7 3t-10 2.5t-13 0.5q-5 0 -57 -1t-107 -1q-28 0 -28 44q0 26 6.5 35t19.5 9h120q35 0 35 4q0 2 -16 46t-32 115t-16 136 q0 104 36 184t96.5 126.5t131.5 70t149 23.5q135 0 239 -61.5t104 -151.5q0 -34 -30.5 -68t-52.5 -34q-18 0 -29 19.5t-25.5 58t-30.5 64.5q-29 46 -87 72.5t-124 26.5q-98 0 -167 -58.5t-69 -174.5q0 -23 2 -46t6.5 -47t8.5 -43t12 -44l13 -40q5 -14 15 -38l14 -34l14 -35 q11 -25 13 -29q11 -26 18.5 -33t21.5 -7h316q30 0 37 -8t7 -37q0 -25 -8 -34t-40 -9h-250q-45 0 -45 -8q0 -1 14 -41.5t28.5 -102.5t14.5 -115q0 -27 -3.5 -54.5t-8.5 -50.5t-12.5 -45.5t-14.5 -39.5t-15 -33l-13 -26q-5 -10 -10.5 -18.5t-5.5 -9.5q32 -10 115.5 -23 t169.5 -13q67 0 122.5 15.5t89 38.5t60.5 50t41 50t26 38.5t19 15.5q11 0 19 -9t8 -23q0 -24 -9.5 -59.5t-33 -80.5t-58 -82.5t-92 -63.5t-126.5 -26q-189 0 -408 90q-10 -1 -36 -20.5t-70.5 -38.5t-101.5 -19q-59 0 -92 32.5t-33 77.5zM118 90q0 -19 20.5 -37.5t48.5 -18.5 q39 0 72.5 24.5t39.5 38.5q-8 9 -48 21t-74 12q-59 0 -59 -40z" />
<glyph unicode="&#xa4;" horiz-adv-x="1080" d="M40 90q0 25 37 62l141 141q-81 106 -81 243q0 136 79 240l-139 141q-36 36 -36 62q0 23 16.5 39t37.5 16q25 0 62 -37l142 -141q104 79 239 79q137 0 242 -79l142 141q36 36 62 36q23 0 39 -16.5t16 -37.5q0 -25 -37 -62l-141 -142q83 -111 83 -242q0 -129 -83 -239 l141 -142q36 -36 36 -62q0 -23 -16.5 -39t-37.5 -16q-25 0 -62 37l-142 141q-104 -79 -242 -79t-240 77l-141 -139q-36 -36 -62 -36q-23 0 -39 16.5t-16 37.5zM254 533q0 -121 84 -204.5t201 -83.5t201.5 85t84.5 205q0 119 -84.5 206t-201.5 87q-118 0 -201.5 -87.5 t-83.5 -207.5z" />
<glyph unicode="&#xa5;" horiz-adv-x="1458" d="M40 1410q0 22 24 28t103 6q13 0 57 -2t62 -2q22 0 83 1t91 1q104 0 104 -24q0 -14 -13.5 -23.5t-30 -14t-30 -13.5t-13.5 -22q0 -18 7 -39.5t21.5 -47t26.5 -43.5l30 -46l25 -37q67 -104 139.5 -202.5t82.5 -98.5h16q8 0 15.5 6t18 21.5t21 34t31.5 51.5l43 67 q8 11 24 35l25 38l23 36l24 36l19 32q11 19 17 32l14 28q6 15 8.5 26t2.5 20q0 41 -24 61t-52.5 21.5t-52.5 11t-24 31.5q0 24 57 24q10 0 38.5 -1t45.5 -1q48 0 114.5 -1t103.5 -1q52 0 76.5 -5.5t24.5 -24.5q0 -9 -12 -15t-35.5 -16.5t-40.5 -24.5q-42 -33 -94 -97 t-89 -118l-95 -144l-63 -97q-9 -14 -20 -29l-15 -21q-5 -6 -5 -10q0 -5 24 -6q32 -2 204 -2q11 0 20 -11.5t9 -34.5q0 -26 -7.5 -34t-20.5 -8q-151 0 -214.5 -0.5t-66.5 -0.5q-17 0 -26 -12t-16 -62.5t-7 -145.5q0 -17 3 -21.5t15 -4.5q3 0 12 0.5t16 0.5h257 q33 0 40.5 -9.5t7.5 -37.5q0 -17 -2 -24.5t-14 -13.5t-37 -6q-60 0 -152 -1t-112 -1q-23 0 -28.5 -4.5t-5.5 -22.5v-16q0 -13 0.5 -36.5t0.5 -50.5v-48q0 -52 13 -88t32.5 -51t35 -20.5t29.5 -5.5q3 0 20 -3.5t21 -3.5q14 0 22 -7t8 -16q0 -18 -9 -24t-28 -6q-40 0 -106 2 t-92 2q-59 0 -148 -6t-96 -6q-52 0 -52 25q0 18 9.5 24.5t35 9t38.5 6.5q86 26 86 126q0 1 2 74.5t2 117.5q0 20 -5.5 24.5t-29.5 4.5l-130 1q-72 1 -153 1q-11 0 -19.5 11.5t-8.5 34.5q0 26 7 34t20 8h43q71 0 116 0.5t63 0.5h22q6 0 17 -0.5t15 -0.5q28 0 36 6t8 29 q0 5 -0.5 26.5t-0.5 42.5q0 54 -14.5 96t-40.5 45q-8 1 -31 1h-206q-33 0 -40.5 9.5t-7.5 37.5q0 17 2 24.5t14 13.5t37 6q187 0 187 5q0 3 -29 47l-201 299q-46 69 -84 112t-68.5 61t-50 23.5t-47.5 5.5q-52 0 -52 27z" />
<glyph unicode="&#xa6;" horiz-adv-x="427" d="M160 -303q0 27 0.5 60t1.5 76t1.5 180.5t0.5 347.5q0 26 12.5 38t40.5 12q27 0 35.5 -11.5t8.5 -39.5v-376q0 -148 0.5 -192t0.5 -78v-64q0 -19 -1 -29.5t-4 -23.5t-10 -19t-19 -6q-46 0 -57 20t-11 105zM169 1511q0 26 12.5 38t40.5 12q27 0 35.5 -11.5t8.5 -39.5v-378 q0 -152 0.5 -202t0.5 -82v-48q0 -19 -1 -29.5t-4 -23.5t-10 -19t-19 -6q-45 0 -54 19t-9 106v60q0 33 -0.5 76t-0.5 181v347z" />
<glyph unicode="&#xa7;" horiz-adv-x="1109" d="M120 564q0 67 21.5 121t52 85t61 52.5t52 33t21.5 15.5q0 6 -18.5 17t-45 29t-53.5 43.5t-45.5 70t-18.5 100.5q0 150 112.5 247t281.5 97q72 0 127 -14t87.5 -28t50.5 -14q4 0 21.5 7.5t26.5 7.5q33 0 36 -20q4 -30 16 -102t18.5 -118t6.5 -58q0 -58 -26 -58 q-18 0 -29.5 19.5t-22 52t-26.5 69t-53.5 76t-92.5 67.5q-72 36 -172 36q-62 0 -110 -20.5t-74 -52t-39 -64t-13 -62.5q0 -87 96 -141q42 -24 113.5 -51t135.5 -47.5t134.5 -55t120.5 -73.5t83 -102t33 -141q0 -65 -12 -112.5t-25.5 -70t-44.5 -63.5q-19 -25 -38 -40.5 t-27.5 -21t-8.5 -11.5q0 -5 13 -13l30 -18q17 -11 39.5 -38.5t38.5 -65.5q26 -61 26 -116q0 -180 -127 -284t-320 -104q-91 0 -160 15t-160 63q-30 16 -60 153.5t-30 171.5q0 48 30 48q27 0 37 -24l5 -13l11 -29q5 -15 16 -39l24 -46q12 -22 30 -47.5t38 -48t46 -43.5 t54 -36t63 -24t72 -9q82 0 152 24t117.5 78t47.5 129q0 49 -41 89t-107 68.5t-145.5 56.5t-159 62.5t-145.5 77t-107 108.5t-41 149zM244 628q0 -97 118 -167q43 -26 207 -87t176 -61q30 0 79.5 66.5t49.5 138.5q0 144 -228 233q-199 77 -222 77q-11 0 -38.5 -13.5t-60 -37 t-57 -64t-24.5 -85.5z" />
<glyph unicode="&#xa8;" horiz-adv-x="900" d="M212 1210q0 28 32.5 66.5t64.5 38.5q34 0 66 -36.5t32 -68.5q0 -34 -36 -71.5t-53 -37.5q-41 0 -73.5 39.5t-32.5 69.5zM539 1210q0 28 32.5 66.5t64.5 38.5q34 0 66 -36.5t32 -68.5q0 -34 -36 -71.5t-53 -37.5q-41 0 -73.5 39.5t-32.5 69.5z" />
<glyph unicode="&#xa9;" horiz-adv-x="1630" d="M90 686q0 146 56.5 280.5t153 234t232.5 158.5t287 59q150 0 285.5 -59t232.5 -158t154 -233.5t57 -281.5q0 -194 -94.5 -361t-263.5 -267.5t-373 -100.5q-194 0 -361 95.5t-266.5 263.5t-99.5 370zM176 686q0 -133 52 -253t139.5 -205t205.5 -135t246 -50q170 0 317 83 t236.5 232.5t89.5 330.5q0 127 -49.5 244.5t-134 204.5t-205.5 139.5t-256 52.5q-133 0 -252 -51.5t-204 -138.5t-135 -206t-50 -248zM336 660q0 100 31.5 187.5t91 154t153.5 105t210 38.5q78 0 156 -22.5t124 -45t48 -22.5q4 0 10 6t15 6q8 0 13 -2t8 -8.5t4.5 -14.5 t3.5 -23t3 -30.5t4 -41.5t7 -51q4 -28 4 -31q0 -31 -26 -31q-18 0 -29 22q-119 219 -345 219q-154 0 -252.5 -95t-98.5 -247q0 -55 11 -110t40 -115t73.5 -105.5t119 -75t168.5 -29.5q162 0 278 162q13 18 22 40.5t15.5 30t24.5 7.5q14 0 14 -16q0 -56 -25 -170 q-4 -18 -26 -29l-57 -27q-42 -21 -63 -29t-58.5 -21t-75.5 -18t-82 -5q-93 0 -170.5 18t-129.5 47t-92 69.5t-62.5 80t-36.5 83.5t-18.5 76.5t-4.5 62.5z" />
<glyph unicode="&#xaa;" horiz-adv-x="619" d="M60 914q0 26 8 47.5t20 37t35 28.5t42.5 20.5t54 15.5t58 12.5t64.5 11.5q16 3 24 4t12.5 2.5t7.5 5.5t3 12t1.5 28t1.5 31q0 38 -13.5 65.5t-34 41t-38.5 19.5t-34 6q-88 0 -88 -72q0 -9 3 -24t3 -19q0 -24 -28 -24q-10 0 -23.5 2t-31 6.5t-29 15.5t-11.5 26 q0 50 71.5 94.5t158.5 44.5q42 0 76 -6.5t55 -16t36.5 -24.5t22.5 -27.5t11 -30.5t4.5 -27t0.5 -24q0 -90 -3.5 -142.5t-3.5 -90.5q0 -72 12.5 -94.5t38.5 -22.5q6 0 12.5 0.5t14.5 0.5q15 0 15 -19q0 -17 -8 -23t-26 -6h-50q-34 0 -59.5 20.5t-37 40.5t-12.5 20t-10 -9 t-24.5 -22t-35.5 -26.5t-48.5 -22.5t-58.5 -9q-159 0 -159 123zM181 942q0 -41 24.5 -65t69.5 -24q32 0 55 9.5t34.5 21.5t17.5 31.5t6.5 30.5t0.5 29v81q0 10 -9 10q-4 0 -12 -2q-95 -16 -126 -30q-61 -29 -61 -92z" />
<glyph unicode="&#xab;" horiz-adv-x="737" d="M40 443q0 7 14 21q282 242 291 247q4 3 8 3q11 0 22 -13.5t11 -23.5q0 -13 -96 -118t-96 -114q0 -12 95 -118t95 -118t-11 -24.5t-22 -12.5q-5 0 -17 10l-93 80l-189 164q-12 8 -12 17zM311 443q0 11 13 21q280 240 288 245q7 5 12 5q11 0 22 -13.5t11 -23.5 q0 -11 -97 -116t-97 -116q0 -12 95 -119.5t95 -116.5q0 -12 -10 -24.5t-21 -12.5q-6 0 -15 8l-77 66l-207 180q-12 8 -12 17z" />
<glyph unicode="&#xac;" horiz-adv-x="1080" d="M63 441q0 16 6.5 24t13.5 9.5t19 1.5h874q26 0 33.5 -7.5t7.5 -32.5v-323q0 -17 -6.5 -24.5t-24.5 -7.5t-26.5 1t-17.5 4.5t-12.5 12.5t-3.5 24v227q0 35 -54 35h-769q-27 0 -33.5 11.5t-6.5 44.5z" />
<glyph unicode="&#xad;" horiz-adv-x="696" d="M90 297v22q0 22 1 36.5t9.5 26.5t11.5 17t23.5 13t28.5 10.5t42 12.5q109 32 193 63l113 40q30 11 49 11q45 0 45 -69v-14q0 -21 -3.5 -33t-7.5 -20.5t-22.5 -16t-33.5 -12.5t-55 -17l-76 -23l-114 -39l-82 -29q-25 -10 -48 -16t-41 -6q-20 0 -26.5 11t-6.5 32z" />
<glyph unicode="&#xae;" horiz-adv-x="979" d="M60 1118q0 180 124.5 306t301.5 126q180 0 306.5 -126t126.5 -306q0 -175 -127 -301.5t-306 -126.5q-176 0 -301 126.5t-125 301.5zM121 1118q0 -147 109 -255t256 -108q152 0 261 107.5t109 255.5q0 152 -109 260.5t-261 108.5q-148 0 -256.5 -109t-108.5 -260z M252 1348q0 18 25 18q16 0 27 -0.5t20 -0.5q60 0 105.5 2.5t50.5 2.5q76 0 126.5 -31t50.5 -99q0 -40 -22.5 -63.5t-45.5 -32t-23 -10.5t7.5 -10t19 -22t18.5 -26q28 -49 75 -115q24 -32 43 -32q1 0 5.5 1.5t7.5 1.5q9 0 9 -9q0 -11 -11.5 -23t-38.5 -12t-55 15 q-25 14 -58 67l-62 99q-28 47 -42 51q-2 1 -51 1q-14 0 -17.5 -6.5t-3.5 -39.5q0 -78 6 -102q8 -30 29 -40t37.5 -11.5t16.5 -12.5q0 -13 -14 -13q-1 0 -51 2.5t-54 2.5q-22 0 -57 -3l-35 -2q-13 0 -13 15q0 9 11.5 10.5t25.5 10t17 35.5q3 21 3 67v49q0 73 0.5 130t0.5 68 q0 53 -61 53q-22 0 -22 14zM411 1221q0 -41 5.5 -56t24.5 -15q11 0 17 -0.5t11 -0.5q61 0 84.5 18.5t23.5 68.5q0 17 -9.5 38t-41 41.5t-79.5 20.5q-22 0 -29 -9t-7 -38v-68z" />
<glyph unicode="&#xaf;" horiz-adv-x="900" d="M232 1207q0 38 34 38q157 0 225 -1.5t144 -1.5q20 0 26 -10t6 -50q0 -11 -7 -18t-13 -8.5t-10 -1.5q-14 0 -178.5 1t-206.5 1q-20 0 -20 51z" />
<glyph unicode="&#xb0;" horiz-adv-x="531" d="M60 1251q0 71 61 140t149 69q52 0 93 -23t63.5 -58t33.5 -70t11 -67q0 -42 -17.5 -79t-43 -60t-54.5 -40t-51.5 -24t-35.5 -7q-52 0 -91.5 17t-61 41.5t-35 57t-17.5 56.5t-4 47zM147 1249q0 -57 33 -92t88 -35q8 0 20.5 2.5t29.5 11t31.5 21t24.5 35.5t10 52 q0 16 -2.5 31t-10 33t-19.5 31t-33.5 22t-50.5 9q-43 0 -82 -35.5t-39 -85.5z" />
<glyph unicode="&#xb1;" horiz-adv-x="1080" d="M63 184q0 32 6 44t32 12h878q22 0 29.5 -9.5t7.5 -32.5q0 -18 -2 -27t-11.5 -15.5t-29.5 -6.5h-874q-18 0 -27 7t-9 28zM63 663q0 46 38 46h371q22 0 22 21q0 3 -0.5 9t-0.5 9v265q0 31 33 31q37 0 47.5 -6t10.5 -28v-262v-16q0 -11 5 -17t19 -6h376q32 0 32 -32 q0 -25 -1.5 -35t-11 -18t-30.5 -8h-365q-15 0 -19.5 -8t-4.5 -26v-271q0 -18 -7.5 -23.5t-25.5 -5.5q-34 0 -46 5.5t-12 24.5v270q0 21 -5.5 27.5t-27.5 6.5h-361q-17 0 -25 6t-9.5 14.5t-1.5 26.5z" />
<glyph unicode="&#xb2;" d="M86 827v4q0 10 14 28l40 50l59 74q32 42 75.5 115t83.5 158q56 121 56 224q0 51 -35 83.5t-93 32.5q-53 0 -92 -18.5t-59.5 -37t-28.5 -18.5q-10 0 -10 18q0 5 8.5 22t28.5 40.5t47 45t69.5 37t90.5 15.5q80 0 141 -44t61 -125q0 -74 -48.5 -179t-106.5 -188l-107 -150 q-48 -66 -48 -72q0 -10 52 -10h30h98q32 0 54.5 2t26 2t13.5 5l14 7q20 8 48.5 36t37.5 28q14 0 14 -13q0 -5 -22 -45l-44 -78l-22 -38q-19 -26 -42 -26q-87 0 -143.5 1.5t-76.5 1.5q-14 0 -70 -1t-74 -1q-19 0 -28 2t-10.5 4.5t-1.5 7.5z" />
<glyph unicode="&#xb3;" d="M82 878q0 4 1.5 8t8 9t16.5 5q5 0 16.5 -9t25.5 -19t43.5 -19t66.5 -9q45 0 83.5 17t63 43.5t41.5 59.5t24.5 63t7.5 56q0 75 -41 124.5t-137 49.5q-11 0 -20 -1t-13.5 -2t-5.5 -1q-18 0 -18 18q0 4 2 7t9 8l18 10q9 5 28 18t41 30q35 26 54.5 64t19.5 75q0 47 -31 80 t-77 33q-34 0 -68.5 -18t-58 -35.5t-31.5 -17.5q-10 0 -10 12q0 23 34 59t85 63.5t92 27.5q76 0 130 -37t54 -107q0 -32 -8 -57t-29.5 -49.5t-34.5 -36.5t-47 -40q-22 -17 -22 -23q0 -3 16 -5.5t45.5 -11.5t55.5 -26q96 -62 96 -164q0 -147 -96.5 -246t-228.5 -99 q-72 0 -136.5 30t-64.5 63z" />
<glyph unicode="&#xb4;" horiz-adv-x="900" d="M371 1006q0 10 14.5 32t54.5 95.5t86 183.5q17 39 42 39q22 0 64.5 -13.5t42.5 -40.5q0 -44 -199 -255q-60 -64 -80 -64q-10 0 -17.5 6.5t-7.5 16.5z" />
<glyph unicode="&#xb5;" horiz-adv-x="1097" d="M20 -300q0 91 20 187.5t59.5 234.5t58.5 219q40 173 79 368q21 103 29.5 128.5t24.5 25.5q18 0 56.5 -13.5t38.5 -39.5q0 -21 -51.5 -313t-51.5 -333q0 -73 40 -73q53 0 122 65t133.5 166t119 204t94.5 198q10 24 18 46l13 34q5 12 8 23.5t5.5 17t4 10t5 5.5t7 1.5 t10.5 0.5q27 0 57.5 -13t30.5 -29q0 -5 -64 -306.5t-64 -359.5q0 -23 15.5 -37.5t35.5 -14.5q27 0 49.5 23t34.5 51t27 51t28 23q24 0 24 -35q0 -32 -22.5 -75.5t-58.5 -85t-90 -70t-110 -28.5q-48 0 -65.5 39.5t-17.5 108.5q0 54 20 176.5t20 125.5q0 11 -4 11 q-7 0 -26.5 -35t-70.5 -111t-119 -150q-62 -68 -133 -113t-130 -45q-31 0 -50.5 22.5t-26.5 44.5t-9 22q-4 0 -14 -41t-19 -96.5t-9 -89.5q0 -39 27 -101.5t27 -67.5q0 -8 -5.5 -21t-23.5 -27.5t-45 -14.5q-33 0 -47.5 25.5t-14.5 81.5z" />
<glyph unicode="&#xb6;" horiz-adv-x="1034" d="M90 1034q0 78 25 147.5t66.5 120t94.5 88t110 56t111 18.5q57 0 145.5 1.5t129.5 1.5q18 0 58 1.5t64 1.5h26q6 0 11.5 -6.5t5.5 -12.5q0 -14 -15 -21.5t-39.5 -17.5t-38.5 -25q-29 -31 -29 -135q0 -206 -3 -530t-3 -530q0 -158 -47 -287.5t-137.5 -206.5t-207.5 -77 q-82 0 -136 30q-6 4 -11 22t-5 33q0 34 21 84t40 50q11 0 18.5 -16t15 -39t19.5 -46.5t39 -39.5t67 -16q31 0 54.5 20t38 58.5t23.5 78.5t13 95t5 92t1 86q0 13 1 35t1 29q0 62 -2.5 206.5t-2.5 244.5q0 30 -52 30q-49 0 -89.5 2.5t-91.5 12t-90 25t-79 44t-66 67t-42.5 96 t-16.5 129.5zM465 1030q0 -150 22 -232t77 -82q19 0 36 11.5t18 28.5q1 25 1 71q0 45 -2 121t-2 111q0 95 1 155t1.5 77t1.5 27t1 17q0 44 -12.5 64.5t-43.5 20.5q-21 0 -45.5 -11t-31.5 -33q-16 -53 -19 -101.5t-3 -244.5zM668 1037q0 -54 0.5 -156t0.5 -151q0 -203 3 -440 l3 -236q0 -82 -3 -116.5t-3 -36.5q0 -22 16 -22q9 0 26 43.5t32.5 133.5t15.5 190q0 229 -2 590t-2 552q0 16 -14.5 26.5t-32.5 10.5q-13 0 -24.5 -7.5t-11.5 -19.5q-4 -175 -4 -361z" />
<glyph unicode="&#xb7;" horiz-adv-x="516" d="M158 681q0 24 35 67.5t66 43.5q34 0 65 -41t31 -75q0 -33 -39.5 -72.5t-57.5 -39.5q-40 0 -70 43t-30 74z" />
<glyph unicode="&#xb8;" horiz-adv-x="900" d="M349 -162q0 3 2 5.5t7 7t8 7.5l12 8l13 9q3 2 16 13.5t23 16.5t22 5q6 0 22 -7t35.5 -21t34 -40t14.5 -58q0 -48 -22 -88t-52 -62t-55.5 -34t-39.5 -12q-9 0 -14.5 5t-5.5 9q0 7 21.5 18.5t43 35t21.5 60.5q0 31 -16.5 51.5t-36.5 28t-36.5 18.5t-16.5 24z" />
<glyph unicode="&#xb9;" d="M167 1560q0 15 12 25.5t29.5 16t53.5 19t67 28.5q20 9 39 23l30 22q12 8 21 8q22 0 22 -28q0 -5 -6 -30.5t-6 -32.5q-9 -156 -9 -409q0 -73 -2 -152t-2 -91q0 -21 2.5 -36t9 -24.5t12.5 -15.5t19 -9t21.5 -4.5t27.5 -3t30 -2.5q25 -3 25 -27q0 -23 -72 -23q-17 0 -58 1 t-68 1q-30 0 -83.5 -2.5t-69.5 -2.5q-37 0 -37 24q0 29 45 29q37 0 51.5 8t19.5 41q13 97 13 328v137q0 53 0.5 68.5t0.5 24.5v15q0 38 -8 56t-34 18q-17 0 -39 -11.5t-39 -11.5q-2 0 -6 2t-8 7.5t-4 13.5z" />
<glyph unicode="&#xba;" horiz-adv-x="744" d="M60 1062q0 115 83 200t231 85q126 0 218 -73.5t92 -203.5q0 -133 -95.5 -208.5t-224.5 -75.5q-144 0 -224 81.5t-80 194.5zM181 1105q0 -124 67.5 -198t153.5 -74q70 0 118 52.5t48 149.5q0 68 -23.5 128t-75.5 101.5t-124 41.5q-63 0 -113.5 -49.5t-50.5 -151.5z" />
<glyph unicode="&#xbb;" horiz-adv-x="737" d="M80 209q0 13 97 120t97 112q0 12 -95 119.5t-95 116.5q0 12 10 24.5t21 12.5q6 0 15 -8l77 -66l207 -180q12 -8 12 -17q0 -11 -14 -21l-189 -162q-76 -66 -90 -77t-20 -11q-11 0 -22 13.5t-11 23.5zM351 209q0 13 96 118t96 114q0 13 -95 122t-95 114q0 12 11 24.5 t22 12.5q5 0 16 -10l94 -80l189 -164q12 -8 12 -17q0 -7 -14 -21q-282 -242 -291 -247q-4 -3 -8 -3q-11 0 -22 13.5t-11 23.5z" />
<glyph unicode="&#xbc;" horiz-adv-x="1870" d="M1218 295q0 23 48.5 87.5t318.5 399.5q10 12 25 32l24 32q9 12 20.5 25t21.5 19.5t18 6.5q23 0 23 -24q0 -2 -3 -105l-8 -214q-4 -113 -4 -138q0 -14 0.5 -19t4 -7.5t11.5 -2.5q37 0 57.5 9t30 18t19.5 9q15 0 15 -19q0 -13 -14 -63q0 -1 -2.5 -14.5t-4.5 -23t-8.5 -18.5 t-15.5 -9q-10 0 -37.5 2t-35.5 2q-23 0 -23 -24q0 -18 2 -69.5t2 -94.5v-108q0 -14 -0.5 -20.5t-0.5 -13.5t-2.5 -10t-3.5 -6.5t-7.5 -5t-9.5 -3t-14.5 -3.5t-17.5 -4q-26 -6 -51 -6q-16 0 -24.5 11t-8.5 21q0 2 2.5 11.5t6.5 30.5t8 54t6.5 93.5t2.5 137.5q0 8 -15 8h-10 q-6 0 -16.5 -0.5t-47.5 -0.5h-96q-29 0 -79 -1.5t-69 -1.5q-15 0 -22 1t-11.5 5.5t-4.5 13.5zM1353 393q0 -11 35 -11h166q23 0 29.5 2.5t6.5 10.5v13q0 1 1.5 54.5t3 119t1.5 97.5q0 33 -6 33q-8 0 -122.5 -150t-114.5 -169zM402 -147q0 31 935 1420q5 9 24 33.5t30 24.5 t24 -9.5t13 -16.5q0 -20 -17 -44l-897 -1365l-43 -66q-7 -11 -14 -13q-14 -4 -21 -4q-12 0 -19 3t-10 9.5t-4 12t-1 15.5zM167 1198q0 15 12 25.5t29.5 16t53.5 19t67 28.5q20 9 39 23l30 22q12 8 21 8q22 0 22 -28q0 -5 -6 -30.5t-6 -32.5q-9 -156 -9 -409q0 -73 -2 -152 t-2 -91q0 -21 2.5 -36t9 -24.5t12.5 -15.5t19 -9t21.5 -4.5t27.5 -3t30 -2.5q25 -3 25 -27q0 -23 -72 -23q-17 0 -58 1t-68 1q-30 0 -83.5 -2.5t-69.5 -2.5q-37 0 -37 24q0 29 45 29q37 0 51.5 8t19.5 41q13 97 13 328v137q0 53 0.5 68.5t0.5 24.5v15q0 38 -8 56t-34 18 q-17 0 -39 -11.5t-39 -11.5q-2 0 -6 2t-8 7.5t-4 13.5z" />
<glyph unicode="&#xbd;" horiz-adv-x="1870" d="M402 -147q0 31 935 1420q5 9 24 33.5t30 24.5t24 -9.5t13 -16.5q0 -20 -17 -44l-897 -1365l-43 -66q-7 -11 -14 -13q-14 -4 -21 -4q-12 0 -19 3t-10 9.5t-4 12t-1 15.5zM167 1198q0 15 12 25.5t29.5 16t53.5 19t67 28.5q20 9 39 23l30 22q12 8 21 8q22 0 22 -28 q0 -5 -6 -30.5t-6 -32.5q-9 -156 -9 -409q0 -73 -2 -152t-2 -91q0 -21 2.5 -36t9 -24.5t12.5 -15.5t19 -9t21.5 -4.5t27.5 -3t30 -2.5q25 -3 25 -27q0 -23 -72 -23q-17 0 -58 1t-68 1q-30 0 -83.5 -2.5t-69.5 -2.5q-37 0 -37 24q0 29 45 29q37 0 51.5 8t19.5 41 q13 97 13 328v137q0 53 0.5 68.5t0.5 24.5v15q0 38 -8 56t-34 18q-17 0 -39 -11.5t-39 -11.5q-2 0 -6 2t-8 7.5t-4 13.5zM1266 37v4q0 10 14 28l40 50l59 74q32 42 75.5 115t83.5 158q56 121 56 224q0 51 -35 83.5t-93 32.5q-53 0 -92 -18.5t-59.5 -37t-28.5 -18.5 q-10 0 -10 18q0 5 8.5 22t28.5 40.5t47 45t69.5 37t90.5 15.5q80 0 141 -44t61 -125q0 -74 -48.5 -179t-106.5 -188l-107 -150q-48 -66 -48 -72q0 -10 52 -10h30h98q32 0 54.5 2t26 2t13.5 5l14 7q20 8 48.5 36t37.5 28q14 0 14 -13q0 -5 -22 -45l-44 -78l-22 -38 q-19 -26 -42 -26q-87 0 -143.5 1.5t-76.5 1.5q-14 0 -70 -1t-74 -1q-19 0 -28 2t-10.5 4.5t-1.5 7.5z" />
<glyph unicode="&#xbe;" horiz-adv-x="1870" d="M1218 295q0 23 48.5 87.5t318.5 399.5q10 12 25 32l24 32q9 12 20.5 25t21.5 19.5t18 6.5q23 0 23 -24q0 -2 -3 -105l-8 -214q-4 -113 -4 -138q0 -14 0.5 -19t4 -7.5t11.5 -2.5q37 0 57.5 9t30 18t19.5 9q15 0 15 -19q0 -13 -14 -63q0 -1 -2.5 -14.5t-4.5 -23t-8.5 -18.5 t-15.5 -9q-10 0 -37.5 2t-35.5 2q-23 0 -23 -24q0 -18 2 -69.5t2 -94.5v-108q0 -14 -0.5 -20.5t-0.5 -13.5t-2.5 -10t-3.5 -6.5t-7.5 -5t-9.5 -3t-14.5 -3.5t-17.5 -4q-26 -6 -51 -6q-16 0 -24.5 11t-8.5 21q0 2 2.5 11.5t6.5 30.5t8 54t6.5 93.5t2.5 137.5q0 8 -15 8h-10 q-6 0 -16.5 -0.5t-47.5 -0.5h-96q-29 0 -79 -1.5t-69 -1.5q-15 0 -22 1t-11.5 5.5t-4.5 13.5zM1353 393q0 -11 35 -11h166q23 0 29.5 2.5t6.5 10.5v13q0 1 1.5 54.5t3 119t1.5 97.5q0 33 -6 33q-8 0 -122.5 -150t-114.5 -169zM402 -147q0 31 935 1420q5 9 24 33.5t30 24.5 t24 -9.5t13 -16.5q0 -20 -17 -44l-897 -1365l-43 -66q-7 -11 -14 -13q-14 -4 -21 -4q-12 0 -19 3t-10 9.5t-4 12t-1 15.5zM82 516q0 4 1.5 8t8 9t16.5 5q5 0 16.5 -9t25.5 -19t43.5 -19t66.5 -9q45 0 83.5 17t63 43.5t41.5 59.5t24.5 63t7.5 56q0 75 -41 124.5t-137 49.5 q-11 0 -20 -1t-13.5 -2t-5.5 -1q-18 0 -18 18q0 4 2 7t9 8l18 10q9 5 28 18t41 30q35 26 54.5 64t19.5 75q0 47 -31 80t-77 33q-34 0 -68.5 -18t-58 -35.5t-31.5 -17.5q-10 0 -10 12q0 23 34 59t85 63.5t92 27.5q76 0 130 -37t54 -107q0 -32 -8 -57t-29.5 -49.5t-34.5 -36.5 t-47 -40q-22 -17 -22 -23q0 -3 16 -5.5t45.5 -11.5t55.5 -26q96 -62 96 -164q0 -147 -96.5 -246t-228.5 -99q-72 0 -136.5 30t-64.5 63z" />
<glyph unicode="&#xbf;" horiz-adv-x="716" d="M74 216q0 55 29.5 120.5t72.5 126.5l84 123q43 62 72.5 130.5t29.5 128.5q0 21 -5.5 54t-5.5 41q0 21 16 21q30 0 48 -58t18 -105q0 -61 -47 -174l-94 -223q-47 -110 -47 -163q0 -42 21.5 -76t53 -52t61 -27.5t51.5 -9.5q27 0 51 13.5t39.5 26.5t21.5 13q9 0 13.5 -7 t4.5 -13q0 -34 -65 -79t-147 -45q-70 0 -131.5 25.5t-103 80t-41.5 128.5zM222 1234q0 15 12 27.5t31.5 25.5t26.5 20q8 8 23 28t27.5 31.5t24.5 11.5q13 0 39.5 -22.5t43.5 -44.5q5 -6 36 -31t31 -41q0 -19 -73 -83q-7 -6 -24.5 -26t-30.5 -30t-26 -10q-9 0 -24 15.5 t-29.5 35t-16.5 21.5t-21 17t-34.5 30.5t-15.5 24.5z" />
<glyph unicode="&#xc0;" horiz-adv-x="1663" d="M605 1842q0 27 42.5 40.5t64.5 13.5q25 0 42 -39q46 -110 86 -183.5t54.5 -95.5t14.5 -32t-7.5 -16.5t-17.5 -6.5q-20 0 -80 64q-199 211 -199 255zM40 17q0 27 32 39q37 14 59.5 35t56.5 78t95 186l153 329l349 751q14 30 25 38.5t35 8.5q20 0 27 -10t25 -63 q43 -126 96 -256l227 -535q160 -375 175 -404q28 -57 62.5 -91t62.5 -43.5t52 -13.5t37.5 -11.5t13.5 -27.5q0 -32 -56 -32q-22 0 -88 6.5t-96 6.5q-38 0 -101 -3.5t-91 -3.5q-64 0 -80.5 4.5t-16.5 22.5q0 15 16 23.5t35.5 12.5t35.5 19t16 41q0 45 -51.5 185t-87.5 205 q-7 12 -11 17.5t-22 11.5t-50 6q-11 0 -90.5 -2t-157.5 -2h-108q-65 0 -94 -5t-40 -15.5t-24 -38.5l-41 -85l-38 -81l-26 -60q-15 -36 -20.5 -57t-5.5 -38q0 -39 15.5 -62t38 -30t44.5 -10.5t37.5 -11t15.5 -24.5q0 -15 -6 -22.5t-28 -7.5q-11 0 -70.5 1t-99.5 1 q-44 0 -100.5 -4t-75.5 -4q-61 0 -61 26zM555 692q0 -26 18.5 -32.5t86.5 -6.5h62l195 2q80 0 80 34q0 26 -100.5 252.5t-125.5 226.5q-18 0 -117 -226.5t-99 -249.5z" />
<glyph unicode="&#xc1;" horiz-adv-x="1663" d="M751 1546q0 10 14.5 32t54.5 95.5t86 183.5q17 39 42 39q22 0 64.5 -13.5t42.5 -40.5q0 -44 -199 -255q-60 -64 -80 -64q-10 0 -17.5 6.5t-7.5 16.5zM40 17q0 27 32 39q37 14 59.5 35t56.5 78t95 186l153 329l349 751q14 30 25 38.5t35 8.5q20 0 27 -10t25 -63 q43 -126 96 -256l227 -535q160 -375 175 -404q28 -57 62.5 -91t62.5 -43.5t52 -13.5t37.5 -11.5t13.5 -27.5q0 -32 -56 -32q-22 0 -88 6.5t-96 6.5q-38 0 -101 -3.5t-91 -3.5q-64 0 -80.5 4.5t-16.5 22.5q0 15 16 23.5t35.5 12.5t35.5 19t16 41q0 45 -51.5 185t-87.5 205 q-7 12 -11 17.5t-22 11.5t-50 6q-11 0 -90.5 -2t-157.5 -2h-108q-65 0 -94 -5t-40 -15.5t-24 -38.5l-41 -85l-38 -81l-26 -60q-15 -36 -20.5 -57t-5.5 -38q0 -39 15.5 -62t38 -30t44.5 -10.5t37.5 -11t15.5 -24.5q0 -15 -6 -22.5t-28 -7.5q-11 0 -70.5 1t-99.5 1 q-44 0 -100.5 -4t-75.5 -4q-61 0 -61 26zM555 692q0 -26 18.5 -32.5t86.5 -6.5h62l195 2q80 0 80 34q0 26 -100.5 252.5t-125.5 226.5q-18 0 -117 -226.5t-99 -249.5z" />
<glyph unicode="&#xc2;" horiz-adv-x="1663" d="M600 1562q0 5 8 18l64 98q30 45 46 73l30 51q13 23 18.5 34t11.5 19t10 10t12 2h52q21 0 35 -23q33 -59 78 -127l71 -107q26 -39 26 -47q0 -16 -22 -16q-15 0 -109.5 87t-100.5 87q-13 0 -104 -86t-106 -86q-20 0 -20 13zM40 17q0 27 32 39q37 14 59.5 35t56.5 78t95 186 l153 329l349 751q14 30 25 38.5t35 8.5q20 0 27 -10t25 -63q43 -126 96 -256l227 -535q160 -375 175 -404q28 -57 62.5 -91t62.5 -43.5t52 -13.5t37.5 -11.5t13.5 -27.5q0 -32 -56 -32q-22 0 -88 6.5t-96 6.5q-38 0 -101 -3.5t-91 -3.5q-64 0 -80.5 4.5t-16.5 22.5 q0 15 16 23.5t35.5 12.5t35.5 19t16 41q0 45 -51.5 185t-87.5 205q-7 12 -11 17.5t-22 11.5t-50 6q-11 0 -90.5 -2t-157.5 -2h-108q-65 0 -94 -5t-40 -15.5t-24 -38.5l-41 -85l-38 -81l-26 -60q-15 -36 -20.5 -57t-5.5 -38q0 -39 15.5 -62t38 -30t44.5 -10.5t37.5 -11 t15.5 -24.5q0 -15 -6 -22.5t-28 -7.5q-11 0 -70.5 1t-99.5 1q-44 0 -100.5 -4t-75.5 -4q-61 0 -61 26zM555 692q0 -26 18.5 -32.5t86.5 -6.5h62l195 2q80 0 80 34q0 26 -100.5 252.5t-125.5 226.5q-18 0 -117 -226.5t-99 -249.5z" />
<glyph unicode="&#xc3;" horiz-adv-x="1663" d="M528 1626q0 18 29.5 69t78.5 99t91 48q50 0 128.5 -49t128.5 -49q30 0 57 29t44 57.5t24 28.5q21 0 21 -24q0 -21 -29 -70t-77.5 -94t-90.5 -45q-43 0 -89 24l-88 50q-42 24 -80 24q-31 0 -58.5 -29t-45 -57.5t-23.5 -28.5q-21 0 -21 17zM40 17q0 27 32 39q37 14 59.5 35 t56.5 78t95 186l153 329l349 751q14 30 25 38.5t35 8.5q20 0 27 -10t25 -63q43 -126 96 -256l227 -535q160 -375 175 -404q28 -57 62.5 -91t62.5 -43.5t52 -13.5t37.5 -11.5t13.5 -27.5q0 -32 -56 -32q-22 0 -88 6.5t-96 6.5q-38 0 -101 -3.5t-91 -3.5q-64 0 -80.5 4.5 t-16.5 22.5q0 15 16 23.5t35.5 12.5t35.5 19t16 41q0 45 -51.5 185t-87.5 205q-7 12 -11 17.5t-22 11.5t-50 6q-11 0 -90.5 -2t-157.5 -2h-108q-65 0 -94 -5t-40 -15.5t-24 -38.5l-41 -85l-38 -81l-26 -60q-15 -36 -20.5 -57t-5.5 -38q0 -39 15.5 -62t38 -30t44.5 -10.5 t37.5 -11t15.5 -24.5q0 -15 -6 -22.5t-28 -7.5q-11 0 -70.5 1t-99.5 1q-44 0 -100.5 -4t-75.5 -4q-61 0 -61 26zM555 692q0 -26 18.5 -32.5t86.5 -6.5h62l195 2q80 0 80 34q0 26 -100.5 252.5t-125.5 226.5q-18 0 -117 -226.5t-99 -249.5z" />
<glyph unicode="&#xc4;" horiz-adv-x="1663" d="M592 1750q0 28 32.5 66.5t64.5 38.5q34 0 66 -36.5t32 -68.5q0 -34 -36 -71.5t-53 -37.5q-41 0 -73.5 39.5t-32.5 69.5zM919 1750q0 28 32.5 66.5t64.5 38.5q34 0 66 -36.5t32 -68.5q0 -34 -36 -71.5t-53 -37.5q-41 0 -73.5 39.5t-32.5 69.5zM40 17q0 27 32 39 q37 14 59.5 35t56.5 78t95 186l153 329l349 751q14 30 25 38.5t35 8.5q20 0 27 -10t25 -63q43 -126 96 -256l227 -535q160 -375 175 -404q28 -57 62.5 -91t62.5 -43.5t52 -13.5t37.5 -11.5t13.5 -27.5q0 -32 -56 -32q-22 0 -88 6.5t-96 6.5q-38 0 -101 -3.5t-91 -3.5 q-64 0 -80.5 4.5t-16.5 22.5q0 15 16 23.5t35.5 12.5t35.5 19t16 41q0 45 -51.5 185t-87.5 205q-7 12 -11 17.5t-22 11.5t-50 6q-11 0 -90.5 -2t-157.5 -2h-108q-65 0 -94 -5t-40 -15.5t-24 -38.5l-41 -85l-38 -81l-26 -60q-15 -36 -20.5 -57t-5.5 -38q0 -39 15.5 -62 t38 -30t44.5 -10.5t37.5 -11t15.5 -24.5q0 -15 -6 -22.5t-28 -7.5q-11 0 -70.5 1t-99.5 1q-44 0 -100.5 -4t-75.5 -4q-61 0 -61 26zM555 692q0 -26 18.5 -32.5t86.5 -6.5h62l195 2q80 0 80 34q0 26 -100.5 252.5t-125.5 226.5q-18 0 -117 -226.5t-99 -249.5z" />
<glyph unicode="&#xc5;" horiz-adv-x="1663" d="M674 1750q0 54 46 106t113 52q52 0 88.5 -30t50 -66t13.5 -69q0 -40 -19.5 -72.5t-47 -50t-50.5 -27t-36 -9.5q-39 0 -69.5 13t-46.5 31.5t-26 43t-13 43t-3 35.5zM751 1748q0 -38 22 -61t58 -23q7 0 18 3.5t25.5 11.5t24 25t9.5 41q0 31 -16.5 57t-60.5 26 q-29 0 -54.5 -23.5t-25.5 -56.5zM40 17q0 27 32 39q37 14 59.5 35t56.5 78t95 186l153 329l349 751q14 30 25 38.5t35 8.5q20 0 27 -10t25 -63q43 -126 96 -256l227 -535q160 -375 175 -404q28 -57 62.5 -91t62.5 -43.5t52 -13.5t37.5 -11.5t13.5 -27.5q0 -32 -56 -32 q-22 0 -88 6.5t-96 6.5q-38 0 -101 -3.5t-91 -3.5q-64 0 -80.5 4.5t-16.5 22.5q0 15 16 23.5t35.5 12.5t35.5 19t16 41q0 45 -51.5 185t-87.5 205q-7 12 -11 17.5t-22 11.5t-50 6q-11 0 -90.5 -2t-157.5 -2h-108q-65 0 -94 -5t-40 -15.5t-24 -38.5l-41 -85l-38 -81l-26 -60 q-15 -36 -20.5 -57t-5.5 -38q0 -39 15.5 -62t38 -30t44.5 -10.5t37.5 -11t15.5 -24.5q0 -15 -6 -22.5t-28 -7.5q-11 0 -70.5 1t-99.5 1q-44 0 -100.5 -4t-75.5 -4q-61 0 -61 26zM555 692q0 -26 18.5 -32.5t86.5 -6.5h62l195 2q80 0 80 34q0 26 -100.5 252.5t-125.5 226.5 q-18 0 -117 -226.5t-99 -249.5z" />
<glyph unicode="&#xc6;" horiz-adv-x="2033" d="M40 16q0 28 34 40q36 14 58 33t57 72.5t95 166.5l152 293l360 693q11 21 11 39q0 29 -107 39q-46 4 -46 40q0 31 61 31q14 0 273.5 -8t460.5 -8q44 0 213 3.5t197 3.5q38 0 38 -47q0 -12 -12 -81t-12 -128q0 -18 -10 -31.5t-22 -13.5q-13 0 -22 11.5t-9 32.5 q0 55 -35.5 99t-86.5 48q-172 13 -282 13h-52h-52q-17 0 -37 -4t-26 -5.5t-15 -14t-10 -19.5t-3.5 -32t-3.5 -42v-8q-4 -77 -7 -342q0 -101 38 -103q19 -1 51 -1q15 0 42.5 0.5t44.5 0.5h63q123 0 163.5 8t73.5 30q22 15 33.5 36.5t13.5 37t8.5 26.5t21.5 11q17 0 22 -7 t5 -26q0 -14 -9 -94.5t-9 -120.5q0 -38 3.5 -73t3.5 -51q0 -53 -14 -53q-19 0 -31 19t-17 43t-17.5 50.5t-30.5 38.5q-43 29 -198 29h-99q-39 0 -49.5 0.5t-17.5 0.5h-13q-84 0 -84 -39q0 -59 -2 -148.5t-2 -146.5q0 -14 -0.5 -41.5t-0.5 -40.5q0 -58 12.5 -106t36.5 -56 q51 -16 88 -16q117 0 212 8.5t155 22t106 31t69 36t40 36t23.5 31t14.5 22t18 8.5q25 0 25 -34q0 -87 -88.5 -178.5t-154.5 -91.5q-148 0 -332.5 11t-229.5 11q-58 0 -145 -10t-135 -10q-14 0 -21 0.5t-14 6t-7 15.5q0 18 0.5 24t6 10.5t13 4.5t27 6.5t41.5 17.5 q34 16 49.5 47.5t23 110t7.5 237.5q0 18 0.5 37t0.5 21q0 7 -2.5 8.5t-11.5 1.5q-13 0 -72.5 2t-98.5 2h-63q-38 0 -89.5 1t-67.5 1q-56 0 -83.5 -6.5t-37.5 -16.5t-23 -36l-34 -66l-32 -61l-26 -51q-16 -31 -24 -48l-16 -40q-8 -21 -11 -36.5t-3 -28.5q0 -43 22.5 -65 t49.5 -24.5t49.5 -10t22.5 -26.5q0 -18 -8.5 -25t-27.5 -7q-11 0 -71.5 1t-100.5 1q-44 0 -100.5 -4t-75.5 -4q-60 0 -60 25zM593 687q0 -23 18.5 -28.5t84.5 -5.5h186h42q16 0 33.5 0.5t26.5 2t19 3t13.5 5.5t8 7.5t5.5 10.5l2 14q1 6 1 17v519q0 32 -1.5 51.5t-7.5 42.5 t-20 34t-37 11q-29 0 -55 -43q-67 -114 -193 -367t-126 -274z" />
<glyph unicode="&#xc7;" horiz-adv-x="1653" d="M815 -162q0 3 2 5.5t7 7t8 7.5l12 8l13 9q3 2 16 13.5t23 16.5t22 5q6 0 22 -7t35.5 -21t34 -40t14.5 -58q0 -48 -22 -88t-52 -62t-55.5 -34t-39.5 -12q-9 0 -14.5 5t-5.5 9q0 7 21.5 18.5t43 35t21.5 60.5q0 31 -16.5 51.5t-36.5 28t-36.5 18.5t-16.5 24zM90 663 q0 166 50.5 310t146 253.5t245 173t334.5 63.5q79 0 161 -15.5t143.5 -37.5t111.5 -44.5t80.5 -38t34.5 -15.5q7 0 20 10.5t22 10.5q11 0 20.5 -8.5t10.5 -23.5q2 -59 9.5 -125.5t13.5 -110.5t6 -52q0 -36 -24 -36q-20 0 -35 29q-93 176 -237 274t-337 98 q-168 0 -300.5 -73.5t-208 -209t-75.5 -309.5q0 -115 22.5 -218.5t74 -199t128.5 -164.5t194 -110t261 -41q73 0 141.5 20.5t119.5 51.5t98.5 74t78.5 81t59 80q9 14 30 14q19 0 19 -27q0 -17 -5 -47.5t-11 -55.5l-12 -58l-10 -41q-5 -23 -32 -36q-85 -41 -131 -61t-116 -44 t-137 -34t-144 -10q-129 0 -240 22t-193.5 60.5t-148.5 92.5t-110 116t-73.5 132t-42 139.5t-12.5 140.5z" />
<glyph unicode="&#xc8;" horiz-adv-x="1237" d="M406 1842q0 27 42.5 40.5t64.5 13.5q25 0 42 -39q46 -110 86 -183.5t54.5 -95.5t14.5 -32t-7.5 -16.5t-17.5 -6.5q-20 0 -80 64q-199 211 -199 255zM40 1432q0 28 59 28q8 0 26 -1.5t29 -1.5q6 0 192.5 -6t306.5 -6q44 0 213 4.5t197 4.5q38 0 38 -47q0 -12 -12 -81 t-12 -128q0 -18 -10 -31.5t-22 -13.5q-13 0 -22 11.5t-9 32.5q0 55 -35.5 99t-86.5 48q-172 13 -282 13h-52h-52q-17 0 -37 -4t-26 -5.5t-15 -14t-10 -19.5t-3.5 -32t-3.5 -42v-8q-4 -77 -7 -342q0 -101 38 -103q19 -1 51 -1q15 0 42.5 0.5t44.5 0.5h63q123 0 163.5 8 t73.5 30q22 15 33.5 36.5t13.5 37t8.5 26.5t21.5 11q17 0 22 -7t5 -26q0 -14 -9 -94.5t-9 -120.5q0 -38 3.5 -73t3.5 -51q0 -53 -14 -53q-19 0 -31 19t-17 43t-17.5 50.5t-30.5 38.5q-43 29 -198 29h-99q-39 0 -49.5 0.5t-17.5 0.5h-13q-84 0 -84 -39q0 -59 -2 -148.5 t-2 -146.5q0 -14 -0.5 -41.5t-0.5 -40.5q0 -58 12.5 -106t36.5 -56q51 -16 88 -16q117 0 212 8.5t155 22t106 31t69 36t40 36t23.5 31t14.5 22t18 8.5q25 0 25 -34q0 -87 -88.5 -178.5t-154.5 -91.5q-148 0 -332.5 11t-229.5 11q-58 0 -145 -10t-135 -10q-14 0 -21 0.5 t-14 6t-7 15.5q0 18 0.5 24t6 10.5t13 4.5t27 6.5t41.5 17.5q34 16 49.5 48.5t23 111t7.5 237.5v254q0 55 3 172.5t3 182.5q0 75 -5 185q-3 60 -51.5 92.5t-114.5 34.5q-15 0 -23 6.5t-9 13t-1 18.5z" />
<glyph unicode="&#xc9;" horiz-adv-x="1237" d="M552 1546q0 10 14.5 32t54.5 95.5t86 183.5q17 39 42 39q22 0 64.5 -13.5t42.5 -40.5q0 -44 -199 -255q-60 -64 -80 -64q-10 0 -17.5 6.5t-7.5 16.5zM40 1432q0 28 59 28q8 0 26 -1.5t29 -1.5q6 0 192.5 -6t306.5 -6q44 0 213 4.5t197 4.5q38 0 38 -47q0 -12 -12 -81 t-12 -128q0 -18 -10 -31.5t-22 -13.5q-13 0 -22 11.5t-9 32.5q0 55 -35.5 99t-86.5 48q-172 13 -282 13h-52h-52q-17 0 -37 -4t-26 -5.5t-15 -14t-10 -19.5t-3.5 -32t-3.5 -42v-8q-4 -77 -7 -342q0 -101 38 -103q19 -1 51 -1q15 0 42.5 0.5t44.5 0.5h63q123 0 163.5 8 t73.5 30q22 15 33.5 36.5t13.5 37t8.5 26.5t21.5 11q17 0 22 -7t5 -26q0 -14 -9 -94.5t-9 -120.5q0 -38 3.5 -73t3.5 -51q0 -53 -14 -53q-19 0 -31 19t-17 43t-17.5 50.5t-30.5 38.5q-43 29 -198 29h-99q-39 0 -49.5 0.5t-17.5 0.5h-13q-84 0 -84 -39q0 -59 -2 -148.5 t-2 -146.5q0 -14 -0.5 -41.5t-0.5 -40.5q0 -58 12.5 -106t36.5 -56q51 -16 88 -16q117 0 212 8.5t155 22t106 31t69 36t40 36t23.5 31t14.5 22t18 8.5q25 0 25 -34q0 -87 -88.5 -178.5t-154.5 -91.5q-148 0 -332.5 11t-229.5 11q-58 0 -145 -10t-135 -10q-14 0 -21 0.5 t-14 6t-7 15.5q0 18 0.5 24t6 10.5t13 4.5t27 6.5t41.5 17.5q34 16 49.5 48.5t23 111t7.5 237.5v254q0 55 3 172.5t3 182.5q0 75 -5 185q-3 60 -51.5 92.5t-114.5 34.5q-15 0 -23 6.5t-9 13t-1 18.5z" />
<glyph unicode="&#xca;" horiz-adv-x="1237" d="M401 1562q0 5 8 18l64 98q30 45 46 73l30 51q13 23 18.5 34t11.5 19t10 10t12 2h52q21 0 35 -23q33 -59 78 -127l71 -107q26 -39 26 -47q0 -16 -22 -16q-15 0 -109.5 87t-100.5 87q-13 0 -104 -86t-106 -86q-20 0 -20 13zM40 1432q0 28 59 28q8 0 26 -1.5t29 -1.5 q6 0 192.5 -6t306.5 -6q44 0 213 4.5t197 4.5q38 0 38 -47q0 -12 -12 -81t-12 -128q0 -18 -10 -31.5t-22 -13.5q-13 0 -22 11.5t-9 32.5q0 55 -35.5 99t-86.5 48q-172 13 -282 13h-52h-52q-17 0 -37 -4t-26 -5.5t-15 -14t-10 -19.5t-3.5 -32t-3.5 -42v-8q-4 -77 -7 -342 q0 -101 38 -103q19 -1 51 -1q15 0 42.5 0.5t44.5 0.5h63q123 0 163.5 8t73.5 30q22 15 33.5 36.5t13.5 37t8.5 26.5t21.5 11q17 0 22 -7t5 -26q0 -14 -9 -94.5t-9 -120.5q0 -38 3.5 -73t3.5 -51q0 -53 -14 -53q-19 0 -31 19t-17 43t-17.5 50.5t-30.5 38.5q-43 29 -198 29 h-99q-39 0 -49.5 0.5t-17.5 0.5h-13q-84 0 -84 -39q0 -59 -2 -148.5t-2 -146.5q0 -14 -0.5 -41.5t-0.5 -40.5q0 -58 12.5 -106t36.5 -56q51 -16 88 -16q117 0 212 8.5t155 22t106 31t69 36t40 36t23.5 31t14.5 22t18 8.5q25 0 25 -34q0 -87 -88.5 -178.5t-154.5 -91.5 q-148 0 -332.5 11t-229.5 11q-58 0 -145 -10t-135 -10q-14 0 -21 0.5t-14 6t-7 15.5q0 18 0.5 24t6 10.5t13 4.5t27 6.5t41.5 17.5q34 16 49.5 48.5t23 111t7.5 237.5v254q0 55 3 172.5t3 182.5q0 75 -5 185q-3 60 -51.5 92.5t-114.5 34.5q-15 0 -23 6.5t-9 13t-1 18.5z" />
<glyph unicode="&#xcb;" horiz-adv-x="1237" d="M393 1750q0 28 32.5 66.5t64.5 38.5q34 0 66 -36.5t32 -68.5q0 -34 -36 -71.5t-53 -37.5q-41 0 -73.5 39.5t-32.5 69.5zM720 1750q0 28 32.5 66.5t64.5 38.5q34 0 66 -36.5t32 -68.5q0 -34 -36 -71.5t-53 -37.5q-41 0 -73.5 39.5t-32.5 69.5zM40 1432q0 28 59 28 q8 0 26 -1.5t29 -1.5q6 0 192.5 -6t306.5 -6q44 0 213 4.5t197 4.5q38 0 38 -47q0 -12 -12 -81t-12 -128q0 -18 -10 -31.5t-22 -13.5q-13 0 -22 11.5t-9 32.5q0 55 -35.5 99t-86.5 48q-172 13 -282 13h-52h-52q-17 0 -37 -4t-26 -5.5t-15 -14t-10 -19.5t-3.5 -32t-3.5 -42 v-8q-4 -77 -7 -342q0 -101 38 -103q19 -1 51 -1q15 0 42.5 0.5t44.5 0.5h63q123 0 163.5 8t73.5 30q22 15 33.5 36.5t13.5 37t8.5 26.5t21.5 11q17 0 22 -7t5 -26q0 -14 -9 -94.5t-9 -120.5q0 -38 3.5 -73t3.5 -51q0 -53 -14 -53q-19 0 -31 19t-17 43t-17.5 50.5t-30.5 38.5 q-43 29 -198 29h-99q-39 0 -49.5 0.5t-17.5 0.5h-13q-84 0 -84 -39q0 -59 -2 -148.5t-2 -146.5q0 -14 -0.5 -41.5t-0.5 -40.5q0 -58 12.5 -106t36.5 -56q51 -16 88 -16q117 0 212 8.5t155 22t106 31t69 36t40 36t23.5 31t14.5 22t18 8.5q25 0 25 -34q0 -87 -88.5 -178.5 t-154.5 -91.5q-148 0 -332.5 11t-229.5 11q-58 0 -145 -10t-135 -10q-14 0 -21 0.5t-14 6t-7 15.5q0 18 0.5 24t6 10.5t13 4.5t27 6.5t41.5 17.5q34 16 49.5 48.5t23 111t7.5 237.5v254q0 55 3 172.5t3 182.5q0 75 -5 185q-3 60 -51.5 92.5t-114.5 34.5q-15 0 -23 6.5t-9 13 t-1 18.5z" />
<glyph unicode="&#xcc;" horiz-adv-x="672" d="M80 1842q0 27 42.5 40.5t64.5 13.5q25 0 42 -39q46 -110 86 -183.5t54.5 -95.5t14.5 -32t-7.5 -16.5t-17.5 -6.5q-20 0 -80 64q-199 211 -199 255zM40 1424q0 31 58 31q22 0 94 -5t137 -5q39 0 75 2t106 2q56 0 56 -28q0 -12 -20.5 -23.5t-73.5 -32.5q-67 -27 -67 -234 q0 -278 -2.5 -490t-2.5 -269q0 -95 11 -150t40 -97q44 -63 97 -63q4 0 21 -1.5t20 -1.5q15 0 29 -7.5t14 -15.5q0 -23 -11 -29.5t-39 -6.5q-60 0 -113 4t-82 4q-58 0 -126 -5t-100 -5q-39 0 -60 4.5t-26 10.5t-5 16q0 15 12.5 21.5t32 10t40.5 10.5t39.5 29.5t27.5 59.5 q3 14 12 231t9 315v117q0 27 1 102t1 119v95q0 97 -7 149q-7 49 -54.5 75t-100.5 29q-43 2 -43 32z" />
<glyph unicode="&#xcd;" horiz-adv-x="672" d="M226 1546q0 10 14.5 32t54.5 95.5t86 183.5q17 39 42 39q22 0 64.5 -13.5t42.5 -40.5q0 -44 -199 -255q-60 -64 -80 -64q-10 0 -17.5 6.5t-7.5 16.5zM40 1424q0 31 58 31q22 0 94 -5t137 -5q39 0 75 2t106 2q56 0 56 -28q0 -12 -20.5 -23.5t-73.5 -32.5q-67 -27 -67 -234 q0 -278 -2.5 -490t-2.5 -269q0 -95 11 -150t40 -97q44 -63 97 -63q4 0 21 -1.5t20 -1.5q15 0 29 -7.5t14 -15.5q0 -23 -11 -29.5t-39 -6.5q-60 0 -113 4t-82 4q-58 0 -126 -5t-100 -5q-39 0 -60 4.5t-26 10.5t-5 16q0 15 12.5 21.5t32 10t40.5 10.5t39.5 29.5t27.5 59.5 q3 14 12 231t9 315v117q0 27 1 102t1 119v95q0 97 -7 149q-7 49 -54.5 75t-100.5 29q-43 2 -43 32z" />
<glyph unicode="&#xce;" horiz-adv-x="672" d="M75 1562q0 5 8 18l64 98q30 45 46 73l30 51q13 23 18.5 34t11.5 19t10 10t12 2h52q21 0 35 -23q33 -59 78 -127l71 -107q26 -39 26 -47q0 -16 -22 -16q-15 0 -109.5 87t-100.5 87q-13 0 -104 -86t-106 -86q-20 0 -20 13zM40 1424q0 31 58 31q22 0 94 -5t137 -5q39 0 75 2 t106 2q56 0 56 -28q0 -12 -20.5 -23.5t-73.5 -32.5q-67 -27 -67 -234q0 -278 -2.5 -490t-2.5 -269q0 -95 11 -150t40 -97q44 -63 97 -63q4 0 21 -1.5t20 -1.5q15 0 29 -7.5t14 -15.5q0 -23 -11 -29.5t-39 -6.5q-60 0 -113 4t-82 4q-58 0 -126 -5t-100 -5q-39 0 -60 4.5 t-26 10.5t-5 16q0 15 12.5 21.5t32 10t40.5 10.5t39.5 29.5t27.5 59.5q3 14 12 231t9 315v117q0 27 1 102t1 119v95q0 97 -7 149q-7 49 -54.5 75t-100.5 29q-43 2 -43 32z" />
<glyph unicode="&#xcf;" horiz-adv-x="672" d="M67 1750q0 28 32.5 66.5t64.5 38.5q34 0 66 -36.5t32 -68.5q0 -34 -36 -71.5t-53 -37.5q-41 0 -73.5 39.5t-32.5 69.5zM394 1750q0 28 32.5 66.5t64.5 38.5q34 0 66 -36.5t32 -68.5q0 -34 -36 -71.5t-53 -37.5q-41 0 -73.5 39.5t-32.5 69.5zM40 1424q0 31 58 31 q22 0 94 -5t137 -5q39 0 75 2t106 2q56 0 56 -28q0 -12 -20.5 -23.5t-73.5 -32.5q-67 -27 -67 -234q0 -278 -2.5 -490t-2.5 -269q0 -95 11 -150t40 -97q44 -63 97 -63q4 0 21 -1.5t20 -1.5q15 0 29 -7.5t14 -15.5q0 -23 -11 -29.5t-39 -6.5q-60 0 -113 4t-82 4 q-58 0 -126 -5t-100 -5q-39 0 -60 4.5t-26 10.5t-5 16q0 15 12.5 21.5t32 10t40.5 10.5t39.5 29.5t27.5 59.5q3 14 12 231t9 315v117q0 27 1 102t1 119v95q0 97 -7 149q-7 49 -54.5 75t-100.5 29q-43 2 -43 32z" />
<glyph unicode="&#xd0;" horiz-adv-x="1623" d="M40 1433q0 18 18.5 22t87.5 4h177q51 0 188 4t211 4q113 0 226 -26.5t218.5 -82t186.5 -133t130 -188t49 -238.5q0 -117 -15 -209t-37 -155t-64 -121.5t-80 -95.5t-101 -89q-60 -50 -176.5 -93t-240.5 -43q-12 0 -209 6t-283 6q-72 0 -134 -5.5t-72 -5.5q-29 0 -38.5 6 t-9.5 20q0 13 6 20.5t13.5 10.5t24 7.5t27.5 9.5q33 14 60.5 54t27.5 79q0 34 3 463q0 19 -6 25.5t-24 6.5q-62 1 -132 1q-10 0 -17.5 11.5t-7.5 34.5q0 26 6.5 34t17.5 8q28 0 133 1q20 0 25 7t5 29q0 56 -1 196.5t-1 256.5q0 36 -34.5 71.5t-75.5 38.5q-54 4 -67 13 q-15 10 -15 35zM404 289q0 -31 0.5 -51.5t4 -38.5t6.5 -28.5t12.5 -20.5t17 -14.5t24.5 -10.5t31 -9l41 -11q27 -7 49 -14q69 -21 150 -21h40q140 0 238.5 39t187.5 126q79 77 115.5 206t36.5 265q0 133 -42.5 245.5t-113 190t-162.5 132t-189.5 79.5t-194.5 25h-67 q-21 0 -52 -3t-42.5 -4t-30.5 -10.5t-23.5 -15t-14 -24.5t-10.5 -32t-4 -44.5t-3 -54.5v-71q0 -89 -2 -287q0 -28 7 -36.5t37 -8.5h309q29 0 35.5 -9.5t6.5 -37.5q0 -12 -1 -18.5t-5 -13.5t-14 -9.5t-26 -2.5q-43 0 -151.5 -1t-156.5 -1h-20q-16 0 -19 -4t-3 -21v-10 q0 -83 -1 -212.5t-1 -157.5z" />
<glyph unicode="&#xd1;" horiz-adv-x="1635" d="M512 1626q0 18 29.5 69t78.5 99t91 48q50 0 128.5 -49t128.5 -49q30 0 57 29t44 57.5t24 28.5q21 0 21 -24q0 -21 -29 -70t-77.5 -94t-90.5 -45q-43 0 -89 24l-88 50q-42 24 -80 24q-31 0 -58.5 -29t-45 -57.5t-23.5 -28.5q-21 0 -21 17zM40 1416q0 12 15.5 23t37.5 11 q12 0 40 -1.5t36 -1.5q30 0 57.5 2.5t44.5 2.5q18 0 41.5 -11t28.5 -23q3 -6 23 -28l50 -56q31 -36 55 -68q138 -180 371 -449l375 -425l30 -34l24 -27l16 -18q8 -9 13 -12t9 -3q21 0 21 128v239q0 138 -1.5 232t-3 136t-1.5 52v15q0 69 -9.5 119t-21.5 76.5t-35.5 44 t-39 22.5t-46 11.5t-43.5 10.5q-42 13 -42 36q0 31 40 31q13 0 98 -1.5t96 -1.5q49 0 110 2.5t74 2.5q35 0 48.5 -7.5t13.5 -27.5q0 -8 -11 -15.5t-23.5 -12t-25 -8.5t-13.5 -5q-13 -8 -26 -26t-27 -73t-14 -134v-78q0 -155 -11.5 -538.5t-11.5 -473.5q0 -8 0.5 -22t0.5 -20 q0 -46 -28 -46q-22 0 -34 14q-824 953 -903 1037q-44 47 -55 47q-20 0 -20 -139q0 -195 -8.5 -419t-8.5 -244q0 -64 15 -106.5t37 -60t48.5 -27t48.5 -10.5t37 -8.5t15 -22.5q0 -23 -7 -29.5t-25 -6.5q-15 0 -65.5 2.5t-155.5 2.5q-18 0 -75.5 -2t-97.5 -2q-23 0 -34 6 t-11 27q0 14 11 20t28.5 10t37 13t40 37t34.5 75q13 46 31 379t18 462q0 176 -49 263t-159 100q-28 3 -28 32z" />
<glyph unicode="&#xd2;" horiz-adv-x="1746" d="M631 1842q0 27 42.5 40.5t64.5 13.5q25 0 42 -39q46 -110 86 -183.5t54.5 -95.5t14.5 -32t-7.5 -16.5t-17.5 -6.5q-20 0 -80 64q-199 211 -199 255zM90 695q0 167 51 308.5t148.5 248t249.5 166.5t343 60q128 0 237.5 -26.5t187 -70.5t139.5 -103.5t100.5 -121.5 t64 -128.5t35.5 -122t10 -103.5q0 -169 -40.5 -307.5t-112.5 -235.5t-173.5 -163t-220.5 -97t-256 -31q-184 0 -332 61.5t-240.5 164.5t-141.5 231.5t-49 269.5zM270 799q0 -58 11.5 -123.5t37 -137.5t62 -140.5t90 -130t118 -108t150 -74t181.5 -27.5q70 0 146.5 21.5 t152 67t135.5 109.5t97.5 157.5t37.5 201.5q0 151 -35.5 279t-98.5 219.5t-148.5 156t-185 95.5t-208.5 31q-106 0 -201 -35.5t-172.5 -105.5t-123.5 -187.5t-46 -268.5z" />
<glyph unicode="&#xd3;" horiz-adv-x="1746" d="M777 1546q0 10 14.5 32t54.5 95.5t86 183.5q17 39 42 39q22 0 64.5 -13.5t42.5 -40.5q0 -44 -199 -255q-60 -64 -80 -64q-10 0 -17.5 6.5t-7.5 16.5zM90 695q0 167 51 308.5t148.5 248t249.5 166.5t343 60q128 0 237.5 -26.5t187 -70.5t139.5 -103.5t100.5 -121.5 t64 -128.5t35.5 -122t10 -103.5q0 -169 -40.5 -307.5t-112.5 -235.5t-173.5 -163t-220.5 -97t-256 -31q-184 0 -332 61.5t-240.5 164.5t-141.5 231.5t-49 269.5zM270 799q0 -58 11.5 -123.5t37 -137.5t62 -140.5t90 -130t118 -108t150 -74t181.5 -27.5q70 0 146.5 21.5 t152 67t135.5 109.5t97.5 157.5t37.5 201.5q0 151 -35.5 279t-98.5 219.5t-148.5 156t-185 95.5t-208.5 31q-106 0 -201 -35.5t-172.5 -105.5t-123.5 -187.5t-46 -268.5z" />
<glyph unicode="&#xd4;" horiz-adv-x="1746" d="M626 1562q0 5 8 18l64 98q30 45 46 73l30 51q13 23 18.5 34t11.5 19t10 10t12 2h52q21 0 35 -23q33 -59 78 -127l71 -107q26 -39 26 -47q0 -16 -22 -16q-15 0 -109.5 87t-100.5 87q-13 0 -104 -86t-106 -86q-20 0 -20 13zM90 695q0 167 51 308.5t148.5 248t249.5 166.5 t343 60q128 0 237.5 -26.5t187 -70.5t139.5 -103.5t100.5 -121.5t64 -128.5t35.5 -122t10 -103.5q0 -169 -40.5 -307.5t-112.5 -235.5t-173.5 -163t-220.5 -97t-256 -31q-184 0 -332 61.5t-240.5 164.5t-141.5 231.5t-49 269.5zM270 799q0 -58 11.5 -123.5t37 -137.5 t62 -140.5t90 -130t118 -108t150 -74t181.5 -27.5q70 0 146.5 21.5t152 67t135.5 109.5t97.5 157.5t37.5 201.5q0 151 -35.5 279t-98.5 219.5t-148.5 156t-185 95.5t-208.5 31q-106 0 -201 -35.5t-172.5 -105.5t-123.5 -187.5t-46 -268.5z" />
<glyph unicode="&#xd5;" horiz-adv-x="1746" d="M554 1626q0 18 29.5 69t78.5 99t91 48q50 0 128.5 -49t128.5 -49q30 0 57 29t44 57.5t24 28.5q21 0 21 -24q0 -21 -29 -70t-77.5 -94t-90.5 -45q-43 0 -89 24l-88 50q-42 24 -80 24q-31 0 -58.5 -29t-45 -57.5t-23.5 -28.5q-21 0 -21 17zM90 695q0 167 51 308.5 t148.5 248t249.5 166.5t343 60q128 0 237.5 -26.5t187 -70.5t139.5 -103.5t100.5 -121.5t64 -128.5t35.5 -122t10 -103.5q0 -169 -40.5 -307.5t-112.5 -235.5t-173.5 -163t-220.5 -97t-256 -31q-184 0 -332 61.5t-240.5 164.5t-141.5 231.5t-49 269.5zM270 799 q0 -58 11.5 -123.5t37 -137.5t62 -140.5t90 -130t118 -108t150 -74t181.5 -27.5q70 0 146.5 21.5t152 67t135.5 109.5t97.5 157.5t37.5 201.5q0 151 -35.5 279t-98.5 219.5t-148.5 156t-185 95.5t-208.5 31q-106 0 -201 -35.5t-172.5 -105.5t-123.5 -187.5t-46 -268.5z" />
<glyph unicode="&#xd6;" horiz-adv-x="1746" d="M618 1750q0 28 32.5 66.5t64.5 38.5q34 0 66 -36.5t32 -68.5q0 -34 -36 -71.5t-53 -37.5q-41 0 -73.5 39.5t-32.5 69.5zM945 1750q0 28 32.5 66.5t64.5 38.5q34 0 66 -36.5t32 -68.5q0 -34 -36 -71.5t-53 -37.5q-41 0 -73.5 39.5t-32.5 69.5zM90 695q0 167 51 308.5 t148.5 248t249.5 166.5t343 60q128 0 237.5 -26.5t187 -70.5t139.5 -103.5t100.5 -121.5t64 -128.5t35.5 -122t10 -103.5q0 -169 -40.5 -307.5t-112.5 -235.5t-173.5 -163t-220.5 -97t-256 -31q-184 0 -332 61.5t-240.5 164.5t-141.5 231.5t-49 269.5zM270 799 q0 -58 11.5 -123.5t37 -137.5t62 -140.5t90 -130t118 -108t150 -74t181.5 -27.5q70 0 146.5 21.5t152 67t135.5 109.5t97.5 157.5t37.5 201.5q0 151 -35.5 279t-98.5 219.5t-148.5 156t-185 95.5t-208.5 31q-106 0 -201 -35.5t-172.5 -105.5t-123.5 -187.5t-46 -268.5z" />
<glyph unicode="&#xd7;" horiz-adv-x="1080" d="M181 734q0 11 21 31.5t35 20.5q13 0 29 -16l237 -236q25 -25 40 -25q12 0 23 11l256 256q13 13 23 13q11 0 32 -20.5t21 -32.5t-19 -31l-249 -249q-15 -15 -15 -26q0 -9 16 -25l254 -253q13 -13 13 -26q0 -12 -21.5 -33.5t-32.5 -21.5q-10 0 -26 16l-252 252 q-15 15 -27 15q-11 0 -34 -23l-244 -244q-15 -15 -26 -15t-32 20.5t-21 32.5q0 11 16 27l246 247q18 18 18 32q0 12 -14 26l-254 254q-13 13 -13 23z" />
<glyph unicode="&#xd8;" horiz-adv-x="1746" d="M90 695q0 167 51 308.5t148.5 248t249.5 166.5t343 60q68 0 123.5 -7t86 -13.5t38.5 -6.5q24 0 40 34l59 126q1 2 4 9t4.5 10t5.5 9t7.5 8.5t9 5t11.5 2.5q3 0 8.5 -1.5t11 -4t6.5 -2.5q16 -6 21.5 -11t5.5 -18q0 -7 -4 -18l-62 -136q-14 -30 -14 -37q0 -15 22 -26 q107 -50 187.5 -130t122 -166t61 -162t19.5 -141q0 -169 -40.5 -307.5t-112.5 -235.5t-173.5 -163t-220.5 -97t-256 -31q-68 0 -125.5 8t-90.5 16t-40 8q-22 0 -36 -30l-90 -191q-6 -12 -8.5 -15.5t-8 -6.5t-14.5 -3q-20 0 -38.5 9.5t-18.5 26.5q0 13 6 24l94 201q4 8 4 14 q0 7 -3 11.5t-11.5 10t-19 10.5t-31 17.5t-42.5 28.5q-141 101 -215.5 257t-74.5 331zM270 799q0 -95 25.5 -191t63 -168t78.5 -130t72.5 -88t44.5 -30t22 21l493 1055q20 42 20 51q0 32 -96 54.5t-180 22.5q-106 0 -201 -35.5t-172.5 -105.5t-123.5 -187.5t-46 -268.5z M644 139q0 -25 92 -53t184 -28q70 0 146.5 21.5t152 67t135.5 109.5t97.5 157.5t37.5 201.5q0 102 -17 194.5t-43 158t-59 121t-65 90t-59.5 59t-43.5 35t-17 10.5q-4 0 -6.5 -1.5t-9 -12t-15.5 -31.5l-29 -61l-47 -101l-421 -902q-13 -24 -13 -35z" />
<glyph unicode="&#xd9;" horiz-adv-x="1669" d="M667 1842q0 27 42.5 40.5t64.5 13.5q25 0 42 -39q46 -110 86 -183.5t54.5 -95.5t14.5 -32t-7.5 -16.5t-17.5 -6.5q-20 0 -80 64q-199 211 -199 255zM40 1427q0 9 2 14t13 9.5t33 4.5t94 -4.5t137 -4.5q41 0 75 2t118 2q44 0 44 -28q0 -15 -10.5 -21t-26.5 -5t-35 -7 t-35 -24.5t-26.5 -62t-10.5 -114.5v-57q0 -96 -1 -243t-1 -200q0 -206 21 -304q47 -224 236 -293q91 -34 218 -34q158 0 236 22q180 50 248 248q46 132 46 336q0 207 -0.5 315.5t-0.5 119.5q0 70 -3 112t-20.5 90.5t-50.5 71.5q-20 14 -53.5 19t-53.5 9t-20 18q0 31 40 31 q13 0 80 -1.5t78 -1.5q49 0 105 3t69 3q20 0 30.5 -5t12 -10t1.5 -12q0 -13 -19 -25l-45 -28q-25 -16 -35 -34q-14 -26 -18 -51.5t-4 -83.5q0 -14 0.5 -59.5t0.5 -79.5q0 -199 -6.5 -343t-23.5 -255.5t-41 -184.5t-63.5 -127.5t-85 -87t-112.5 -60.5q-50 -21 -140 -33 t-153 -12q-184 0 -296.5 31t-187.5 100q-27 25 -48.5 52.5t-38.5 53.5t-29 64t-20.5 67.5t-14 80.5t-9 87.5t-4.5 104t-1.5 113.5t-0.5 133v35q0 80 2 176t2 118q0 59 -4 91t-20 59t-46 40t-83 21q-45 6 -45 39z" />
<glyph unicode="&#xda;" horiz-adv-x="1669" d="M813 1546q0 10 14.5 32t54.5 95.5t86 183.5q17 39 42 39q22 0 64.5 -13.5t42.5 -40.5q0 -44 -199 -255q-60 -64 -80 -64q-10 0 -17.5 6.5t-7.5 16.5zM40 1427q0 9 2 14t13 9.5t33 4.5t94 -4.5t137 -4.5q41 0 75 2t118 2q44 0 44 -28q0 -15 -10.5 -21t-26.5 -5t-35 -7 t-35 -24.5t-26.5 -62t-10.5 -114.5v-57q0 -96 -1 -243t-1 -200q0 -206 21 -304q47 -224 236 -293q91 -34 218 -34q158 0 236 22q180 50 248 248q46 132 46 336q0 207 -0.5 315.5t-0.5 119.5q0 70 -3 112t-20.5 90.5t-50.5 71.5q-20 14 -53.5 19t-53.5 9t-20 18q0 31 40 31 q13 0 80 -1.5t78 -1.5q49 0 105 3t69 3q20 0 30.5 -5t12 -10t1.5 -12q0 -13 -19 -25l-45 -28q-25 -16 -35 -34q-14 -26 -18 -51.5t-4 -83.5q0 -14 0.5 -59.5t0.5 -79.5q0 -199 -6.5 -343t-23.5 -255.5t-41 -184.5t-63.5 -127.5t-85 -87t-112.5 -60.5q-50 -21 -140 -33 t-153 -12q-184 0 -296.5 31t-187.5 100q-27 25 -48.5 52.5t-38.5 53.5t-29 64t-20.5 67.5t-14 80.5t-9 87.5t-4.5 104t-1.5 113.5t-0.5 133v35q0 80 2 176t2 118q0 59 -4 91t-20 59t-46 40t-83 21q-45 6 -45 39z" />
<glyph unicode="&#xdb;" horiz-adv-x="1669" d="M662 1562q0 5 8 18l64 98q30 45 46 73l30 51q13 23 18.5 34t11.5 19t10 10t12 2h52q21 0 35 -23q33 -59 78 -127l71 -107q26 -39 26 -47q0 -16 -22 -16q-15 0 -109.5 87t-100.5 87q-13 0 -104 -86t-106 -86q-20 0 -20 13zM40 1427q0 9 2 14t13 9.5t33 4.5t94 -4.5 t137 -4.5q41 0 75 2t118 2q44 0 44 -28q0 -15 -10.5 -21t-26.5 -5t-35 -7t-35 -24.5t-26.5 -62t-10.5 -114.5v-57q0 -96 -1 -243t-1 -200q0 -206 21 -304q47 -224 236 -293q91 -34 218 -34q158 0 236 22q180 50 248 248q46 132 46 336q0 207 -0.5 315.5t-0.5 119.5 q0 70 -3 112t-20.5 90.5t-50.5 71.5q-20 14 -53.5 19t-53.5 9t-20 18q0 31 40 31q13 0 80 -1.5t78 -1.5q49 0 105 3t69 3q20 0 30.5 -5t12 -10t1.5 -12q0 -13 -19 -25l-45 -28q-25 -16 -35 -34q-14 -26 -18 -51.5t-4 -83.5q0 -14 0.5 -59.5t0.5 -79.5q0 -199 -6.5 -343 t-23.5 -255.5t-41 -184.5t-63.5 -127.5t-85 -87t-112.5 -60.5q-50 -21 -140 -33t-153 -12q-184 0 -296.5 31t-187.5 100q-27 25 -48.5 52.5t-38.5 53.5t-29 64t-20.5 67.5t-14 80.5t-9 87.5t-4.5 104t-1.5 113.5t-0.5 133v35q0 80 2 176t2 118q0 59 -4 91t-20 59t-46 40 t-83 21q-45 6 -45 39z" />
<glyph unicode="&#xdc;" horiz-adv-x="1669" d="M654 1750q0 28 32.5 66.5t64.5 38.5q34 0 66 -36.5t32 -68.5q0 -34 -36 -71.5t-53 -37.5q-41 0 -73.5 39.5t-32.5 69.5zM981 1750q0 28 32.5 66.5t64.5 38.5q34 0 66 -36.5t32 -68.5q0 -34 -36 -71.5t-53 -37.5q-41 0 -73.5 39.5t-32.5 69.5zM40 1427q0 9 2 14t13 9.5 t33 4.5t94 -4.5t137 -4.5q41 0 75 2t118 2q44 0 44 -28q0 -15 -10.5 -21t-26.5 -5t-35 -7t-35 -24.5t-26.5 -62t-10.5 -114.5v-57q0 -96 -1 -243t-1 -200q0 -206 21 -304q47 -224 236 -293q91 -34 218 -34q158 0 236 22q180 50 248 248q46 132 46 336q0 207 -0.5 315.5 t-0.5 119.5q0 70 -3 112t-20.5 90.5t-50.5 71.5q-20 14 -53.5 19t-53.5 9t-20 18q0 31 40 31q13 0 80 -1.5t78 -1.5q49 0 105 3t69 3q20 0 30.5 -5t12 -10t1.5 -12q0 -13 -19 -25l-45 -28q-25 -16 -35 -34q-14 -26 -18 -51.5t-4 -83.5q0 -14 0.5 -59.5t0.5 -79.5 q0 -199 -6.5 -343t-23.5 -255.5t-41 -184.5t-63.5 -127.5t-85 -87t-112.5 -60.5q-50 -21 -140 -33t-153 -12q-184 0 -296.5 31t-187.5 100q-27 25 -48.5 52.5t-38.5 53.5t-29 64t-20.5 67.5t-14 80.5t-9 87.5t-4.5 104t-1.5 113.5t-0.5 133v35q0 80 2 176t2 118q0 59 -4 91 t-20 59t-46 40t-83 21q-45 6 -45 39z" />
<glyph unicode="&#xdd;" horiz-adv-x="1458" d="M687 1546q0 10 14.5 32t54.5 95.5t86 183.5q17 39 42 39q22 0 64.5 -13.5t42.5 -40.5q0 -44 -199 -255q-60 -64 -80 -64q-10 0 -17.5 6.5t-7.5 16.5zM40 1410q0 22 24 28t103 6q13 0 57 -2t62 -2q22 0 83 1t91 1q104 0 104 -24q0 -14 -13.5 -23.5t-30 -14t-30 -13.5 t-13.5 -22q0 -18 7 -39.5t21.5 -47t26.5 -43.5l30 -46l25 -37q69 -109 144 -209.5t86 -100.5q13 0 30.5 22.5t52 79.5t54.5 87q8 11 24 35l25 38l23 36l24 36l19 32q11 19 17 32l14 28q6 15 8.5 26t2.5 20q0 41 -24 61t-52.5 21.5t-52.5 11t-24 31.5q0 24 57 24 q10 0 38.5 -1t45.5 -1q48 0 114.5 -1t103.5 -1q52 0 76.5 -5.5t24.5 -24.5q0 -9 -12 -15t-35.5 -16.5t-40.5 -24.5q-63 -49 -140 -155.5t-161.5 -238.5t-130.5 -191q-32 -41 -41 -90.5t-9 -167.5q0 -26 0.5 -114t0.5 -124v-48q0 -52 12.5 -87t33 -49.5t35.5 -19.5t29 -5 q3 0 20 -1t21 -1q14 0 22 -9t8 -19q0 -20 -10.5 -26.5t-39.5 -6.5q-10 0 -89 1t-115 1q-73 0 -131 -4.5t-94 -4.5q-57 0 -57 23q0 19 10.5 26t37.5 9.5t40 6.5q86 26 86 124q0 14 0.5 34.5t1.5 49t1.5 115.5t0.5 216q0 33 -5 57t-12 46t-35 66l-54 82l-91 134l-124 185 q-48 73 -87.5 119.5t-71.5 66t-52 25t-48 5.5q-52 0 -52 27z" />
<glyph unicode="&#xde;" horiz-adv-x="1163" d="M40 1424q0 31 58 31q22 0 94 -5t137 -5q39 0 75 2t106 2q56 0 56 -28q0 -12 -20.5 -23.5t-73.5 -32.5q-33 -13 -49.5 -74t-16.5 -120q0 -15 3 -19t19 -4q15 0 86.5 4.5t117.5 4.5q90 0 172.5 -23.5t150 -68.5t108 -119t40.5 -167q0 -73 -19.5 -135t-50.5 -104.5 t-72.5 -76.5t-83.5 -54t-85.5 -33t-76.5 -18t-59 -5q-65 0 -133 16t-68 32q0 31 27 31q12 0 43 -8.5t61 -8.5q37 0 78.5 7.5t90 28t86 51t63 82.5t25.5 118q0 62 -26.5 126t-76 120t-132 91.5t-182.5 35.5q-45 0 -66.5 -16.5t-31.5 -62.5t-10 -140l-1 -351q-3 0 -3 -143v-42 q0 -78 14 -131t36.5 -76.5t49.5 -34.5t54 -11.5t49.5 -1t36.5 -9.5t14 -31q0 -34 -46 -34q-47 0 -165.5 4.5t-127.5 4.5q-21 0 -81.5 -4t-110.5 -4q-63 0 -63 24q0 14 3 22.5t11.5 13.5t15.5 7t23 5l26 5q2 0 6 1q9 2 15 4t17 13t18.5 30t16.5 57t14.5 90t9.5 133.5t4 184.5 q0 158 1 253t1.5 118t1.5 43.5t1 47.5v95q0 97 -7 149q-7 49 -54.5 75t-100.5 29q-43 2 -43 32z" />
<glyph unicode="&#xdf;" horiz-adv-x="1079" d="M40 16q0 13 11.5 18.5t28 9.5t33.5 12t28.5 32.5t11.5 64.5q0 15 0.5 86.5t0.5 206.5v305q0 3 -33.5 29.5t-33.5 37.5q0 14 10.5 20.5t23 7.5t23 5.5t10.5 14.5q0 171 50.5 310t144.5 220.5t214 81.5q35 0 68.5 -5.5t71.5 -22t65.5 -42.5t46 -72.5t18.5 -107.5 q0 -68 -25.5 -129.5t-62 -106t-73 -84t-62 -79.5t-25.5 -77q0 -43 31 -83.5t78 -70.5l100 -69q54 -38 100.5 -75t77.5 -92t31 -118q0 -26 -5 -56.5t-22 -70.5t-44 -71t-75.5 -52.5t-111.5 -21.5q-37 0 -74 7t-58.5 14.5t-46 17.5t-30.5 12l-20 6l-16 5q-5 2 -13 5.5t-11 7 t-7 9.5t-5 14t-1 19v178q0 22 9.5 37t20.5 15q16 0 24.5 -7.5t10.5 -17.5l8 -28q5 -20 10 -34q1 -2 7.5 -20.5t10.5 -27.5l13 -29q9 -20 17 -32l20 -30q11 -18 24 -28.5t29 -21.5t34.5 -16t39.5 -5q57 0 104.5 40.5t47.5 119.5q0 52 -43 99.5t-104 86.5l-124 82 q-61 43 -104 102.5t-43 129.5q0 50 24 100t58 94l68 93q34 48 58 113.5t24 138.5q0 100 -46.5 154t-114.5 54q-34 0 -64.5 -11t-65.5 -46.5t-60 -92.5t-41.5 -158.5t-16.5 -234.5q0 -9 2.5 -61t2.5 -66l-5 -145q-6 -145 -6 -270q0 -34 0.5 -81t0.5 -62q0 -82 16.5 -114 t60.5 -43q46 -12 46 -35q0 -6 -12.5 -12.5t-27.5 -6.5q-1 0 -24 2t-54.5 4t-52.5 2q-37 0 -103 -3t-69 -3q-33 0 -33 24z" />
<glyph unicode="&#xe0;" horiz-adv-x="945" d="M98 175q0 50 14.5 88.5t42 65t64 45.5t84.5 32.5t98 23.5l110 21q39 6 59 10q14 3 19.5 4.5t10.5 8.5t5 20q0 17 2 53t2 54q0 62 -22.5 108.5t-56.5 69.5t-64.5 33t-56.5 10q-146 0 -146 -123q0 -17 4 -42t4 -32q0 -42 -37 -42q-13 0 -31 3t-41.5 11t-39 25.5t-15.5 41.5 q0 80 106.5 152t236.5 72q63 0 113.5 -11t82 -26t54.5 -40.5t34 -45.5t16.5 -50t6.5 -45t1 -39q0 -148 -5 -234t-5 -148q0 -64 11.5 -105.5t28.5 -57t37.5 -23t37.5 -7.5t28.5 -6.5t11.5 -23.5q0 -42 -128 -42q-33 0 -61 11.5t-45.5 28t-30 33.5t-19.5 28.5t-9 11.5t-17 -13 t-40 -32t-56 -38t-73.5 -32t-83.5 -13q-69 0 -112.5 13.5t-77.5 48.5q-52 53 -52 144zM259 204q0 -70 40.5 -111.5t115.5 -41.5q39 0 70 8.5t50.5 20.5t33.5 32t21 36.5t10.5 41t4 37.5t0.5 33v148q0 17 -15 17q-3 0 -6 -0.5t-7.5 -1.5t-6.5 -1q-33 -6 -46 -8t-45.5 -9 t-48 -12t-43.5 -15t-42.5 -20.5t-33.5 -26.5t-28.5 -34t-16.5 -42t-7 -51zM229 1302q0 27 42.5 40.5t64.5 13.5q25 0 42 -39q46 -110 86 -183.5t54.5 -95.5t14.5 -32t-7.5 -16.5t-17.5 -6.5q-20 0 -80 64q-199 211 -199 255z" />
<glyph unicode="&#xe1;" horiz-adv-x="945" d="M375 1006q0 10 14.5 32t54.5 95.5t86 183.5q17 39 42 39q22 0 64.5 -13.5t42.5 -40.5q0 -44 -199 -255q-60 -64 -80 -64q-10 0 -17.5 6.5t-7.5 16.5zM98 175q0 50 14.5 88.5t42 65t64 45.5t84.5 32.5t98 23.5l110 21q39 6 59 10q14 3 19.5 4.5t10.5 8.5t5 20q0 17 2 53 t2 54q0 62 -22.5 108.5t-56.5 69.5t-64.5 33t-56.5 10q-146 0 -146 -123q0 -17 4 -42t4 -32q0 -42 -37 -42q-13 0 -31 3t-41.5 11t-39 25.5t-15.5 41.5q0 80 106.5 152t236.5 72q63 0 113.5 -11t82 -26t54.5 -40.5t34 -45.5t16.5 -50t6.5 -45t1 -39q0 -148 -5 -234t-5 -148 q0 -64 11.5 -105.5t28.5 -57t37.5 -23t37.5 -7.5t28.5 -6.5t11.5 -23.5q0 -42 -128 -42q-33 0 -61 11.5t-45.5 28t-30 33.5t-19.5 28.5t-9 11.5t-17 -13t-40 -32t-56 -38t-73.5 -32t-83.5 -13q-69 0 -112.5 13.5t-77.5 48.5q-52 53 -52 144zM259 204q0 -70 40.5 -111.5 t115.5 -41.5q39 0 70 8.5t50.5 20.5t33.5 32t21 36.5t10.5 41t4 37.5t0.5 33v148q0 17 -15 17q-3 0 -6 -0.5t-7.5 -1.5t-6.5 -1q-33 -6 -46 -8t-45.5 -9t-48 -12t-43.5 -15t-42.5 -20.5t-33.5 -26.5t-28.5 -34t-16.5 -42t-7 -51z" />
<glyph unicode="&#xe2;" horiz-adv-x="945" d="M224 1022q0 5 8 18l64 98q30 45 46 73l30 51q13 23 18.5 34t11.5 19t10 10t12 2h52q21 0 35 -23q33 -59 78 -127l71 -107q26 -39 26 -47q0 -16 -22 -16q-15 0 -109.5 87t-100.5 87q-13 0 -104 -86t-106 -86q-20 0 -20 13zM98 175q0 50 14.5 88.5t42 65t64 45.5t84.5 32.5 t98 23.5l110 21q39 6 59 10q14 3 19.5 4.5t10.5 8.5t5 20q0 17 2 53t2 54q0 62 -22.5 108.5t-56.5 69.5t-64.5 33t-56.5 10q-146 0 -146 -123q0 -17 4 -42t4 -32q0 -42 -37 -42q-13 0 -31 3t-41.5 11t-39 25.5t-15.5 41.5q0 80 106.5 152t236.5 72q63 0 113.5 -11t82 -26 t54.5 -40.5t34 -45.5t16.5 -50t6.5 -45t1 -39q0 -148 -5 -234t-5 -148q0 -64 11.5 -105.5t28.5 -57t37.5 -23t37.5 -7.5t28.5 -6.5t11.5 -23.5q0 -42 -128 -42q-33 0 -61 11.5t-45.5 28t-30 33.5t-19.5 28.5t-9 11.5t-17 -13t-40 -32t-56 -38t-73.5 -32t-83.5 -13 q-69 0 -112.5 13.5t-77.5 48.5q-52 53 -52 144zM259 204q0 -70 40.5 -111.5t115.5 -41.5q39 0 70 8.5t50.5 20.5t33.5 32t21 36.5t10.5 41t4 37.5t0.5 33v148q0 17 -15 17q-3 0 -6 -0.5t-7.5 -1.5t-6.5 -1q-33 -6 -46 -8t-45.5 -9t-48 -12t-43.5 -15t-42.5 -20.5 t-33.5 -26.5t-28.5 -34t-16.5 -42t-7 -51z" />
<glyph unicode="&#xe3;" horiz-adv-x="945" d="M152 1086q0 18 29.5 69t78.5 99t91 48q50 0 128.5 -49t128.5 -49q30 0 57 29t44 57.5t24 28.5q21 0 21 -24q0 -21 -29 -70t-77.5 -94t-90.5 -45q-43 0 -89 24l-88 50q-42 24 -80 24q-31 0 -58.5 -29t-45 -57.5t-23.5 -28.5q-21 0 -21 17zM98 175q0 50 14.5 88.5t42 65 t64 45.5t84.5 32.5t98 23.5l110 21q39 6 59 10q14 3 19.5 4.5t10.5 8.5t5 20q0 17 2 53t2 54q0 62 -22.5 108.5t-56.5 69.5t-64.5 33t-56.5 10q-146 0 -146 -123q0 -17 4 -42t4 -32q0 -42 -37 -42q-13 0 -31 3t-41.5 11t-39 25.5t-15.5 41.5q0 80 106.5 152t236.5 72 q63 0 113.5 -11t82 -26t54.5 -40.5t34 -45.5t16.5 -50t6.5 -45t1 -39q0 -148 -5 -234t-5 -148q0 -64 11.5 -105.5t28.5 -57t37.5 -23t37.5 -7.5t28.5 -6.5t11.5 -23.5q0 -42 -128 -42q-33 0 -61 11.5t-45.5 28t-30 33.5t-19.5 28.5t-9 11.5t-17 -13t-40 -32t-56 -38 t-73.5 -32t-83.5 -13q-69 0 -112.5 13.5t-77.5 48.5q-52 53 -52 144zM259 204q0 -70 40.5 -111.5t115.5 -41.5q39 0 70 8.5t50.5 20.5t33.5 32t21 36.5t10.5 41t4 37.5t0.5 33v148q0 17 -15 17q-3 0 -6 -0.5t-7.5 -1.5t-6.5 -1q-33 -6 -46 -8t-45.5 -9t-48 -12t-43.5 -15 t-42.5 -20.5t-33.5 -26.5t-28.5 -34t-16.5 -42t-7 -51z" />
<glyph unicode="&#xe4;" horiz-adv-x="945" d="M216 1210q0 28 32.5 66.5t64.5 38.5q34 0 66 -36.5t32 -68.5q0 -34 -36 -71.5t-53 -37.5q-41 0 -73.5 39.5t-32.5 69.5zM543 1210q0 28 32.5 66.5t64.5 38.5q34 0 66 -36.5t32 -68.5q0 -34 -36 -71.5t-53 -37.5q-41 0 -73.5 39.5t-32.5 69.5zM98 175q0 50 14.5 88.5 t42 65t64 45.5t84.5 32.5t98 23.5l110 21q39 6 59 10q14 3 19.5 4.5t10.5 8.5t5 20q0 17 2 53t2 54q0 62 -22.5 108.5t-56.5 69.5t-64.5 33t-56.5 10q-146 0 -146 -123q0 -17 4 -42t4 -32q0 -42 -37 -42q-13 0 -31 3t-41.5 11t-39 25.5t-15.5 41.5q0 80 106.5 152t236.5 72 q63 0 113.5 -11t82 -26t54.5 -40.5t34 -45.5t16.5 -50t6.5 -45t1 -39q0 -148 -5 -234t-5 -148q0 -64 11.5 -105.5t28.5 -57t37.5 -23t37.5 -7.5t28.5 -6.5t11.5 -23.5q0 -42 -128 -42q-33 0 -61 11.5t-45.5 28t-30 33.5t-19.5 28.5t-9 11.5t-17 -13t-40 -32t-56 -38 t-73.5 -32t-83.5 -13q-69 0 -112.5 13.5t-77.5 48.5q-52 53 -52 144zM259 204q0 -70 40.5 -111.5t115.5 -41.5q39 0 70 8.5t50.5 20.5t33.5 32t21 36.5t10.5 41t4 37.5t0.5 33v148q0 17 -15 17q-3 0 -6 -0.5t-7.5 -1.5t-6.5 -1q-33 -6 -46 -8t-45.5 -9t-48 -12t-43.5 -15 t-42.5 -20.5t-33.5 -26.5t-28.5 -34t-16.5 -42t-7 -51z" />
<glyph unicode="&#xe5;" horiz-adv-x="945" d="M298 1210q0 54 46 106t113 52q52 0 88.5 -30t50 -66t13.5 -69q0 -40 -19.5 -72.5t-47 -50t-50.5 -27t-36 -9.5q-39 0 -69.5 13t-46.5 31.5t-26 43t-13 43t-3 35.5zM375 1208q0 -38 22 -61t58 -23q7 0 18 3.5t25.5 11.5t24 25t9.5 41q0 31 -16.5 57t-60.5 26 q-29 0 -54.5 -23.5t-25.5 -56.5zM98 175q0 50 14.5 88.5t42 65t64 45.5t84.5 32.5t98 23.5l110 21q39 6 59 10q14 3 19.5 4.5t10.5 8.5t5 20q0 17 2 53t2 54q0 62 -22.5 108.5t-56.5 69.5t-64.5 33t-56.5 10q-146 0 -146 -123q0 -17 4 -42t4 -32q0 -42 -37 -42q-13 0 -31 3 t-41.5 11t-39 25.5t-15.5 41.5q0 80 106.5 152t236.5 72q63 0 113.5 -11t82 -26t54.5 -40.5t34 -45.5t16.5 -50t6.5 -45t1 -39q0 -148 -5 -234t-5 -148q0 -64 11.5 -105.5t28.5 -57t37.5 -23t37.5 -7.5t28.5 -6.5t11.5 -23.5q0 -42 -128 -42q-33 0 -61 11.5t-45.5 28 t-30 33.5t-19.5 28.5t-9 11.5t-17 -13t-40 -32t-56 -38t-73.5 -32t-83.5 -13q-69 0 -112.5 13.5t-77.5 48.5q-52 53 -52 144zM259 204q0 -70 40.5 -111.5t115.5 -41.5q39 0 70 8.5t50.5 20.5t33.5 32t21 36.5t10.5 41t4 37.5t0.5 33v148q0 17 -15 17q-3 0 -6 -0.5t-7.5 -1.5 t-6.5 -1q-33 -6 -46 -8t-45.5 -9t-48 -12t-43.5 -15t-42.5 -20.5t-33.5 -26.5t-28.5 -34t-16.5 -42t-7 -51z" />
<glyph unicode="&#xe6;" horiz-adv-x="1480" d="M98 175q0 137 120 199q73 38 257 70l34 6l67 12q13 3 17.5 5t9.5 15.5t5.5 39.5t0.5 79q0 62 -22.5 108.5t-56 69t-64.5 33t-57 10.5q-146 0 -146 -123q0 -17 4 -42t4 -32q0 -42 -37 -42q-13 0 -31 3t-41.5 11t-39 25.5t-15.5 41.5q0 80 106.5 152t236.5 72 q71 0 124.5 -12.5t81.5 -30t45 -35.5t25 -30.5t12 -12.5q3 0 16 12t36.5 29.5t54 35t77.5 29.5t99 12q87 0 157 -31.5t109.5 -74.5t66 -92.5t35.5 -82t9 -45.5q0 -21 -19.5 -29t-63.5 -8h-465q-17 0 -37.5 0.5t-24.5 0.5q-16 0 -19 -4t-3 -20q0 -98 30 -178.5t79.5 -130 t110 -76.5t125.5 -27q50 0 98.5 14t78.5 31.5t56.5 31.5t36.5 14q8 0 13.5 -6t5.5 -13q0 -8 -14 -29t-45 -50t-71.5 -55t-102 -44.5t-129.5 -18.5q-75 0 -139.5 18.5t-104 45t-67.5 53t-42 45t-15 18.5q-2 0 -15.5 -18t-38 -43.5t-59.5 -50.5t-92.5 -43t-124.5 -18 q-69 0 -112.5 13.5t-77.5 48.5q-52 53 -52 144zM259 204q0 -70 40.5 -111.5t115.5 -41.5q39 0 70 8.5t50.5 20.5t33.5 32t21 36.5t10.5 41t4 37.5t0.5 33v148q0 18 -10 18q-3 0 -35.5 -5t-84.5 -17t-86 -25q-130 -53 -130 -175zM778 601q0 -16 5.5 -23t21.5 -7q55 0 203 6.5 t157 6.5q28 0 35.5 5t7.5 19q0 18 -7 44t-24.5 58t-42 59t-63 45.5t-84.5 18.5q-52 0 -94 -26t-66 -64t-36.5 -75.5t-12.5 -66.5z" />
<glyph unicode="&#xe7;" horiz-adv-x="925" d="M415 -162q0 3 2 5.5t7 7t8 7.5l12 8l13 9q3 2 16 13.5t23 16.5t22 5q6 0 22 -7t35.5 -21t34 -40t14.5 -58q0 -48 -22 -88t-52 -62t-55.5 -34t-39.5 -12q-9 0 -14.5 5t-5.5 9q0 7 21.5 18.5t43 35t21.5 60.5q0 31 -16.5 51.5t-36.5 28t-36.5 18.5t-16.5 24zM80 394 q0 126 57.5 235.5t168 179t250.5 69.5q72 0 153.5 -19.5t84.5 -46.5q5 -62 5 -98q0 -90 -22 -90q-12 0 -21.5 10t-22 27.5t-25.5 28.5q-47 39 -123 74t-148 35q-15 0 -37 -7.5t-52 -31t-55 -59t-42.5 -99.5t-17.5 -144q0 -158 102.5 -276t248.5 -118q56 0 107 16.5t80 36.5 l53 37q23 16 31 16q9 0 15 -6t6 -15q0 -7 -12.5 -27t-42.5 -48.5t-71 -54t-106 -44t-140 -18.5q-192 0 -308 116.5t-116 320.5z" />
<glyph unicode="&#xe8;" horiz-adv-x="954" d="M80 398q0 133 51 243.5t147 177t217 66.5q87 0 157 -31.5t109.5 -74.5t66 -92.5t35.5 -82t9 -45.5q0 -21 -19.5 -29t-63.5 -8h-465q-17 0 -37.5 0.5t-24.5 0.5q-16 0 -19 -4t-3 -20q0 -98 30 -178.5t79.5 -130t110 -76.5t125.5 -27q50 0 98.5 14t78.5 31.5t56.5 31.5 t36.5 14q8 0 13.5 -6t5.5 -13q0 -8 -14 -29t-45 -50t-71.5 -55t-102 -44.5t-129.5 -18.5q-85 0 -160.5 26t-137 77t-98 137t-36.5 196zM252 601q0 -16 5.5 -23t21.5 -7q55 0 203 6.5t157 6.5q28 0 35.5 5t7.5 19q0 18 -7 44t-24.5 58t-42 59t-63 45.5t-84.5 18.5 q-52 0 -94 -26t-66 -64t-36.5 -75.5t-12.5 -66.5zM251 1302q0 27 42.5 40.5t64.5 13.5q25 0 42 -39q46 -110 86 -183.5t54.5 -95.5t14.5 -32t-7.5 -16.5t-17.5 -6.5q-20 0 -80 64q-199 211 -199 255z" />
<glyph unicode="&#xe9;" horiz-adv-x="954" d="M397 1006q0 10 14.5 32t54.5 95.5t86 183.5q17 39 42 39q22 0 64.5 -13.5t42.5 -40.5q0 -44 -199 -255q-60 -64 -80 -64q-10 0 -17.5 6.5t-7.5 16.5zM80 398q0 133 51 243.5t147 177t217 66.5q87 0 157 -31.5t109.5 -74.5t66 -92.5t35.5 -82t9 -45.5q0 -21 -19.5 -29 t-63.5 -8h-465q-17 0 -37.5 0.5t-24.5 0.5q-16 0 -19 -4t-3 -20q0 -98 30 -178.5t79.5 -130t110 -76.5t125.5 -27q50 0 98.5 14t78.5 31.5t56.5 31.5t36.5 14q8 0 13.5 -6t5.5 -13q0 -8 -14 -29t-45 -50t-71.5 -55t-102 -44.5t-129.5 -18.5q-85 0 -160.5 26t-137 77t-98 137 t-36.5 196zM252 601q0 -16 5.5 -23t21.5 -7q55 0 203 6.5t157 6.5q28 0 35.5 5t7.5 19q0 18 -7 44t-24.5 58t-42 59t-63 45.5t-84.5 18.5q-52 0 -94 -26t-66 -64t-36.5 -75.5t-12.5 -66.5z" />
<glyph unicode="&#xea;" horiz-adv-x="954" d="M246 1022q0 5 8 18l64 98q30 45 46 73l30 51q13 23 18.5 34t11.5 19t10 10t12 2h52q21 0 35 -23q33 -59 78 -127l71 -107q26 -39 26 -47q0 -16 -22 -16q-15 0 -109.5 87t-100.5 87q-13 0 -104 -86t-106 -86q-20 0 -20 13zM80 398q0 133 51 243.5t147 177t217 66.5 q87 0 157 -31.5t109.5 -74.5t66 -92.5t35.5 -82t9 -45.5q0 -21 -19.5 -29t-63.5 -8h-465q-17 0 -37.5 0.5t-24.5 0.5q-16 0 -19 -4t-3 -20q0 -98 30 -178.5t79.5 -130t110 -76.5t125.5 -27q50 0 98.5 14t78.5 31.5t56.5 31.5t36.5 14q8 0 13.5 -6t5.5 -13q0 -8 -14 -29 t-45 -50t-71.5 -55t-102 -44.5t-129.5 -18.5q-85 0 -160.5 26t-137 77t-98 137t-36.5 196zM252 601q0 -16 5.5 -23t21.5 -7q55 0 203 6.5t157 6.5q28 0 35.5 5t7.5 19q0 18 -7 44t-24.5 58t-42 59t-63 45.5t-84.5 18.5q-52 0 -94 -26t-66 -64t-36.5 -75.5t-12.5 -66.5z" />
<glyph unicode="&#xeb;" horiz-adv-x="954" d="M238 1210q0 28 32.5 66.5t64.5 38.5q34 0 66 -36.5t32 -68.5q0 -34 -36 -71.5t-53 -37.5q-41 0 -73.5 39.5t-32.5 69.5zM565 1210q0 28 32.5 66.5t64.5 38.5q34 0 66 -36.5t32 -68.5q0 -34 -36 -71.5t-53 -37.5q-41 0 -73.5 39.5t-32.5 69.5zM80 398q0 133 51 243.5 t147 177t217 66.5q87 0 157 -31.5t109.5 -74.5t66 -92.5t35.5 -82t9 -45.5q0 -21 -19.5 -29t-63.5 -8h-465q-17 0 -37.5 0.5t-24.5 0.5q-16 0 -19 -4t-3 -20q0 -98 30 -178.5t79.5 -130t110 -76.5t125.5 -27q50 0 98.5 14t78.5 31.5t56.5 31.5t36.5 14q8 0 13.5 -6t5.5 -13 q0 -8 -14 -29t-45 -50t-71.5 -55t-102 -44.5t-129.5 -18.5q-85 0 -160.5 26t-137 77t-98 137t-36.5 196zM252 601q0 -16 5.5 -23t21.5 -7q55 0 203 6.5t157 6.5q28 0 35.5 5t7.5 19q0 18 -7 44t-24.5 58t-42 59t-63 45.5t-84.5 18.5q-52 0 -94 -26t-66 -64t-36.5 -75.5 t-12.5 -66.5z" />
<glyph unicode="&#xec;" horiz-adv-x="581" d="M73 781q0 9 5.5 15.5t20.5 13t31.5 12t48 17t60.5 23.5q22 9 41.5 18.5t26.5 12.5t15.5 5t20.5 2q11 0 20 -9.5t9 -29.5q0 -11 -5.5 -45.5t-5.5 -53.5v-562q0 -52 13 -85t32.5 -44.5t42.5 -16.5t42.5 -4.5t32.5 -6.5t13 -23q0 -34 -35 -34q-4 0 -14 0.5t-16 0.5 q-45 0 -76.5 2.5t-69.5 2.5q-49 0 -91.5 -2.5t-53.5 -2.5q-83 0 -83 28q0 11 8.5 23t22.5 16q43 14 53 24q23 22 28 119q3 59 3 224v182q0 48 -7.5 79.5t-22 45t-27.5 18.5t-33 8t-29 6q-21 8 -21 21zM28 1302q0 27 42.5 40.5t64.5 13.5q25 0 42 -39q46 -110 86 -183.5 t54.5 -95.5t14.5 -32t-7.5 -16.5t-17.5 -6.5q-20 0 -80 64q-199 211 -199 255z" />
<glyph unicode="&#xed;" horiz-adv-x="581" d="M73 781q0 9 5.5 15.5t20.5 13t31.5 12t48 17t60.5 23.5q22 9 41.5 18.5t26.5 12.5t15.5 5t20.5 2q11 0 20 -9.5t9 -29.5q0 -11 -5.5 -45.5t-5.5 -53.5v-562q0 -52 13 -85t32.5 -44.5t42.5 -16.5t42.5 -4.5t32.5 -6.5t13 -23q0 -34 -35 -34q-4 0 -14 0.5t-16 0.5 q-45 0 -76.5 2.5t-69.5 2.5q-49 0 -91.5 -2.5t-53.5 -2.5q-83 0 -83 28q0 11 8.5 23t22.5 16q43 14 53 24q23 22 28 119q3 59 3 224v182q0 48 -7.5 79.5t-22 45t-27.5 18.5t-33 8t-29 6q-21 8 -21 21zM174 1006q0 10 14.5 32t54.5 95.5t86 183.5q17 39 42 39 q22 0 64.5 -13.5t42.5 -40.5q0 -44 -199 -255q-60 -64 -80 -64q-10 0 -17.5 6.5t-7.5 16.5z" />
<glyph unicode="&#xee;" horiz-adv-x="581" d="M23 1022q0 5 8 18l64 98q30 45 46 73l30 51q13 23 18.5 34t11.5 19t10 10t12 2h52q21 0 35 -23q33 -59 78 -127l71 -107q26 -39 26 -47q0 -16 -22 -16q-15 0 -109.5 87t-100.5 87q-13 0 -104 -86t-106 -86q-20 0 -20 13zM73 781q0 9 5.5 15.5t20.5 13t31.5 12t48 17 t60.5 23.5q22 9 41.5 18.5t26.5 12.5t15.5 5t20.5 2q11 0 20 -9.5t9 -29.5q0 -11 -5.5 -45.5t-5.5 -53.5v-562q0 -52 13 -85t32.5 -44.5t42.5 -16.5t42.5 -4.5t32.5 -6.5t13 -23q0 -34 -35 -34q-4 0 -14 0.5t-16 0.5q-45 0 -76.5 2.5t-69.5 2.5q-49 0 -91.5 -2.5t-53.5 -2.5 q-83 0 -83 28q0 11 8.5 23t22.5 16q43 14 53 24q23 22 28 119q3 59 3 224v182q0 48 -7.5 79.5t-22 45t-27.5 18.5t-33 8t-29 6q-21 8 -21 21z" />
<glyph unicode="&#xef;" horiz-adv-x="581" d="M73 781q0 9 5.5 15.5t20.5 13t31.5 12t48 17t60.5 23.5q22 9 41.5 18.5t26.5 12.5t15.5 5t20.5 2q11 0 20 -9.5t9 -29.5q0 -11 -5.5 -45.5t-5.5 -53.5v-562q0 -52 13 -85t32.5 -44.5t42.5 -16.5t42.5 -4.5t32.5 -6.5t13 -23q0 -34 -35 -34q-4 0 -14 0.5t-16 0.5 q-45 0 -76.5 2.5t-69.5 2.5q-49 0 -91.5 -2.5t-53.5 -2.5q-83 0 -83 28q0 11 8.5 23t22.5 16q43 14 53 24q23 22 28 119q3 59 3 224v182q0 48 -7.5 79.5t-22 45t-27.5 18.5t-33 8t-29 6q-21 8 -21 21zM15 1210q0 28 32.5 66.5t64.5 38.5q34 0 66 -36.5t32 -68.5 q0 -34 -36 -71.5t-53 -37.5q-41 0 -73.5 39.5t-32.5 69.5zM342 1210q0 28 32.5 66.5t64.5 38.5q34 0 66 -36.5t32 -68.5q0 -34 -36 -71.5t-53 -37.5q-41 0 -73.5 39.5t-32.5 69.5z" />
<glyph unicode="&#xf0;" horiz-adv-x="1121" d="M80 415q0 89 31 171t89 149t152.5 107t210.5 40q78 0 166 -49q20 -11 45 -32l40 -36q17 -15 23 -15q9 0 9 7q0 23 -30.5 94t-73.5 143q-45 76 -87 133t-54 57q-6 0 -27 -8l-292 -118q-6 -2 -9 -2q-18 0 -30.5 21t-12.5 39q0 15 18 23l273 110q17 7 17 14q0 4 -17 23 q-53 59 -106 103t-89.5 64t-66 33t-44 20.5t-14.5 15.5q0 24 49 24h49q59 0 153.5 -52.5t191.5 -146.5q30 -30 41 -30q8 0 27 8l251 101q23 9 34 9q18 0 27.5 -23.5t9.5 -34.5q0 -20 -41 -37l-215 -86q-28 -11 -28 -17q0 -1 30 -37t73 -102.5t85.5 -153.5t72.5 -213.5 t30 -260.5q0 -228 -140.5 -367.5t-352.5 -139.5q-113 0 -204.5 38.5t-147.5 103t-86 144t-30 166.5zM241 486q0 -107 33 -197t86 -146t118 -87t132 -31q117 0 199 88.5t82 253.5q0 167 -47 263q-15 31 -62.5 75.5t-79.5 65.5q-86 56 -187 56q-48 0 -93.5 -18.5t-87.5 -56.5 t-67.5 -107t-25.5 -159z" />
<glyph unicode="&#xf1;" horiz-adv-x="1210" d="M318 1086q0 18 29.5 69t78.5 99t91 48q50 0 128.5 -49t128.5 -49q30 0 57 29t44 57.5t24 28.5q21 0 21 -24q0 -21 -29 -70t-77.5 -94t-90.5 -45q-43 0 -89 24l-88 50q-42 24 -80 24q-31 0 -58.5 -29t-45 -57.5t-23.5 -28.5q-21 0 -21 17zM63 798q0 12 13.5 18t44 11 t43.5 9q38 10 80 27.5t68 29.5t34 12h4q19 0 19 -24q0 -5 -2.5 -37t-2.5 -51q0 -54 11 -54q5 0 13.5 11t30.5 33t53 41q93 56 178 56q83 0 147.5 -25.5t101.5 -63.5t61.5 -86.5t32.5 -89.5t8 -78q0 -9 0.5 -20t1 -28.5t1 -81t0.5 -163.5v-46q0 -77 20.5 -106t103.5 -42 q25 -4 33 -11t8 -20q0 -22 -41 -22q-47 0 -98 6t-69 6q-29 0 -89 -4.5t-69 -4.5q-41 0 -41 26q0 10 7.5 16.5t16 9t18 4t10.5 1.5q44 14 44 137v278q0 158 -78 238t-187 80q-88 0 -153.5 -46.5t-75.5 -77.5q-7 -19 -12 -138t-5 -186v-78q0 -41 1.5 -67t8.5 -54t19 -44 t33.5 -27.5t52.5 -13.5q85 -7 85 -31q0 -27 -40 -27q-35 0 -67 4t-81 4q-53 0 -140.5 -4t-88.5 -4q-31 0 -31 20q0 17 10 21.5t25 7t30.5 13t27.5 49.5t14 107q4 114 4 152v296q0 66 -22.5 88t-64.5 22h-20q-40 0 -40 22z" />
<glyph unicode="&#xf2;" horiz-adv-x="1121" d="M80 415q0 89 31 171t89 149t152.5 107t210.5 40q92 0 176.5 -29.5t152.5 -84.5t108.5 -143t40.5 -196q0 -111 -42.5 -202t-112.5 -147.5t-157 -86.5t-181 -30q-113 0 -204.5 38.5t-147.5 103t-86 144t-30 166.5zM241 486q0 -107 33 -197t86 -146t118 -87t132 -31 q117 0 196.5 88.5t79.5 253.5q0 84 -23.5 164t-67.5 147t-117 108t-163 41q-48 0 -93.5 -18.5t-87.5 -56.5t-67.5 -107t-25.5 -159zM319 1302q0 27 42.5 40.5t64.5 13.5q25 0 42 -39q46 -110 86 -183.5t54.5 -95.5t14.5 -32t-7.5 -16.5t-17.5 -6.5q-20 0 -80 64 q-199 211 -199 255z" />
<glyph unicode="&#xf3;" horiz-adv-x="1121" d="M465 1006q0 10 14.5 32t54.5 95.5t86 183.5q17 39 42 39q22 0 64.5 -13.5t42.5 -40.5q0 -44 -199 -255q-60 -64 -80 -64q-10 0 -17.5 6.5t-7.5 16.5zM80 415q0 89 31 171t89 149t152.5 107t210.5 40q92 0 176.5 -29.5t152.5 -84.5t108.5 -143t40.5 -196 q0 -111 -42.5 -202t-112.5 -147.5t-157 -86.5t-181 -30q-113 0 -204.5 38.5t-147.5 103t-86 144t-30 166.5zM241 486q0 -107 33 -197t86 -146t118 -87t132 -31q117 0 196.5 88.5t79.5 253.5q0 84 -23.5 164t-67.5 147t-117 108t-163 41q-48 0 -93.5 -18.5t-87.5 -56.5 t-67.5 -107t-25.5 -159z" />
<glyph unicode="&#xf4;" horiz-adv-x="1121" d="M314 1022q0 5 8 18l64 98q30 45 46 73l30 51q13 23 18.5 34t11.5 19t10 10t12 2h52q21 0 35 -23q33 -59 78 -127l71 -107q26 -39 26 -47q0 -16 -22 -16q-15 0 -109.5 87t-100.5 87q-13 0 -104 -86t-106 -86q-20 0 -20 13zM80 415q0 89 31 171t89 149t152.5 107t210.5 40 q92 0 176.5 -29.5t152.5 -84.5t108.5 -143t40.5 -196q0 -111 -42.5 -202t-112.5 -147.5t-157 -86.5t-181 -30q-113 0 -204.5 38.5t-147.5 103t-86 144t-30 166.5zM241 486q0 -107 33 -197t86 -146t118 -87t132 -31q117 0 196.5 88.5t79.5 253.5q0 84 -23.5 164t-67.5 147 t-117 108t-163 41q-48 0 -93.5 -18.5t-87.5 -56.5t-67.5 -107t-25.5 -159z" />
<glyph unicode="&#xf5;" horiz-adv-x="1121" d="M242 1086q0 18 29.5 69t78.5 99t91 48q50 0 128.5 -49t128.5 -49q30 0 57 29t44 57.5t24 28.5q21 0 21 -24q0 -21 -29 -70t-77.5 -94t-90.5 -45q-43 0 -89 24l-88 50q-42 24 -80 24q-31 0 -58.5 -29t-45 -57.5t-23.5 -28.5q-21 0 -21 17zM80 415q0 89 31 171t89 149 t152.5 107t210.5 40q92 0 176.5 -29.5t152.5 -84.5t108.5 -143t40.5 -196q0 -111 -42.5 -202t-112.5 -147.5t-157 -86.5t-181 -30q-113 0 -204.5 38.5t-147.5 103t-86 144t-30 166.5zM241 486q0 -107 33 -197t86 -146t118 -87t132 -31q117 0 196.5 88.5t79.5 253.5 q0 84 -23.5 164t-67.5 147t-117 108t-163 41q-48 0 -93.5 -18.5t-87.5 -56.5t-67.5 -107t-25.5 -159z" />
<glyph unicode="&#xf6;" horiz-adv-x="1121" d="M306 1210q0 28 32.5 66.5t64.5 38.5q34 0 66 -36.5t32 -68.5q0 -34 -36 -71.5t-53 -37.5q-41 0 -73.5 39.5t-32.5 69.5zM633 1210q0 28 32.5 66.5t64.5 38.5q34 0 66 -36.5t32 -68.5q0 -34 -36 -71.5t-53 -37.5q-41 0 -73.5 39.5t-32.5 69.5zM80 415q0 89 31 171t89 149 t152.5 107t210.5 40q92 0 176.5 -29.5t152.5 -84.5t108.5 -143t40.5 -196q0 -111 -42.5 -202t-112.5 -147.5t-157 -86.5t-181 -30q-113 0 -204.5 38.5t-147.5 103t-86 144t-30 166.5zM241 486q0 -107 33 -197t86 -146t118 -87t132 -31q117 0 196.5 88.5t79.5 253.5 q0 84 -23.5 164t-67.5 147t-117 108t-163 41q-48 0 -93.5 -18.5t-87.5 -56.5t-67.5 -107t-25.5 -159z" />
<glyph unicode="&#xf7;" horiz-adv-x="1080" d="M63 434q0 16 1.5 23t10 13t26.5 6h882q23 0 28 -9t5 -34q0 -20 -2 -28.5t-11.5 -14t-29.5 -5.5h-874q-25 0 -30.5 9.5t-5.5 39.5zM434 655q0 34 25.5 59t60.5 25q34 0 58.5 -24t24.5 -58t-24.5 -58.5t-59.5 -24.5t-60 23.5t-25 57.5zM445 206q0 34 24 58t59 24t60 -25 t25 -59t-24 -57.5t-59 -23.5q-34 0 -59.5 24t-25.5 59z" />
<glyph unicode="&#xf8;" horiz-adv-x="1121" d="M80 415q0 89 31 171t89 149t152.5 107t210.5 40q50 0 96 -8.5t47 -8.5q9 0 14 5t12 20q49 106 56.5 120t19.5 14q14 0 38.5 -10.5t24.5 -26.5q0 -6 -50 -115q-2 -5 -6.5 -12t-7 -12.5t-2.5 -9.5q0 -12 21 -24q99 -57 157 -155t58 -230q0 -111 -42.5 -202t-112.5 -147.5 t-157 -86.5t-181 -30q-36 0 -66.5 3.5t-47.5 7.5t-21 4q-8 0 -14 -13q-1 -1 -1 -2q-79 -167 -86 -175q-4 -4 -10 -4q-18 0 -42.5 11t-24.5 28q0 7 40.5 92t40.5 90q0 8 -19 19q-105 60 -161 165t-56 226zM241 486q0 -67 13.5 -128t32 -100t38 -69t32.5 -43t15 -13q6 0 13 16 l281 601q2 5 5 10.5t5 9.5t2 7q0 16 -53 33t-110 17q-48 0 -93.5 -18.5t-87.5 -56.5t-67.5 -107t-25.5 -159zM452 76q0 -14 53.5 -32.5t104.5 -18.5q117 0 196.5 88.5t79.5 253.5q0 63 -12.5 123t-30.5 100.5t-37.5 71.5t-32.5 46t-16 15q-4 0 -10 -13l-287 -616 q-8 -17 -8 -18z" />
<glyph unicode="&#xf9;" horiz-adv-x="1180" d="M59 806q0 23 27 34t110 11q15 0 64 5.5t53 5.5q35 0 41.5 -14.5t6.5 -88.5q0 -41 -5 -140t-5 -220q0 -78 15 -138t38 -95t54.5 -57.5t60 -30.5t58.5 -8q132 0 191.5 55.5t59.5 193.5l-4 284q0 103 -16 138t-79 41q-45 4 -45 26q0 49 181 49q17 0 41 4.5t31 4.5 q32 0 41.5 -11t9.5 -46q0 -2 -1 -31t-3 -78.5t-3.5 -111t-2.5 -143t-1 -159.5q0 -125 11.5 -169.5t45.5 -44.5q10 0 28 0.5t26 0.5q48 0 48 -25q0 -24 -14.5 -30t-60.5 -6q-36 0 -119 -11.5t-88 -11.5q-15 0 -23 53t-13 53q-4 0 -28 -20.5t-56.5 -45t-90.5 -45t-121 -20.5 q-330 0 -330 356q0 198 1 281t1 88q0 41 -20.5 65.5t-39.5 24.5q-8 0 -18 -0.5t-19 -0.5q-38 0 -38 28zM349 1302q0 27 42.5 40.5t64.5 13.5q25 0 42 -39q46 -110 86 -183.5t54.5 -95.5t14.5 -32t-7.5 -16.5t-17.5 -6.5q-20 0 -80 64q-199 211 -199 255z" />
<glyph unicode="&#xfa;" horiz-adv-x="1180" d="M495 1006q0 10 14.5 32t54.5 95.5t86 183.5q17 39 42 39q22 0 64.5 -13.5t42.5 -40.5q0 -44 -199 -255q-60 -64 -80 -64q-10 0 -17.5 6.5t-7.5 16.5zM59 806q0 23 27 34t110 11q15 0 64 5.5t53 5.5q35 0 41.5 -14.5t6.5 -88.5q0 -41 -5 -140t-5 -220q0 -78 15 -138 t38 -95t54.5 -57.5t60 -30.5t58.5 -8q132 0 191.5 55.5t59.5 193.5l-4 284q0 103 -16 138t-79 41q-45 4 -45 26q0 49 181 49q17 0 41 4.5t31 4.5q32 0 41.5 -11t9.5 -46q0 -2 -1 -31t-3 -78.5t-3.5 -111t-2.5 -143t-1 -159.5q0 -125 11.5 -169.5t45.5 -44.5q10 0 28 0.5 t26 0.5q48 0 48 -25q0 -24 -14.5 -30t-60.5 -6q-36 0 -119 -11.5t-88 -11.5q-15 0 -23 53t-13 53q-4 0 -28 -20.5t-56.5 -45t-90.5 -45t-121 -20.5q-330 0 -330 356q0 198 1 281t1 88q0 41 -20.5 65.5t-39.5 24.5q-8 0 -18 -0.5t-19 -0.5q-38 0 -38 28z" />
<glyph unicode="&#xfb;" horiz-adv-x="1180" d="M344 1022q0 5 8 18l64 98q30 45 46 73l30 51q13 23 18.5 34t11.5 19t10 10t12 2h52q21 0 35 -23q33 -59 78 -127l71 -107q26 -39 26 -47q0 -16 -22 -16q-15 0 -109.5 87t-100.5 87q-13 0 -104 -86t-106 -86q-20 0 -20 13zM59 806q0 23 27 34t110 11q15 0 64 5.5t53 5.5 q35 0 41.5 -14.5t6.5 -88.5q0 -41 -5 -140t-5 -220q0 -78 15 -138t38 -95t54.5 -57.5t60 -30.5t58.5 -8q132 0 191.5 55.5t59.5 193.5l-4 284q0 103 -16 138t-79 41q-45 4 -45 26q0 49 181 49q17 0 41 4.5t31 4.5q32 0 41.5 -11t9.5 -46q0 -2 -1 -31t-3 -78.5t-3.5 -111 t-2.5 -143t-1 -159.5q0 -125 11.5 -169.5t45.5 -44.5q10 0 28 0.5t26 0.5q48 0 48 -25q0 -24 -14.5 -30t-60.5 -6q-36 0 -119 -11.5t-88 -11.5q-15 0 -23 53t-13 53q-4 0 -28 -20.5t-56.5 -45t-90.5 -45t-121 -20.5q-330 0 -330 356q0 198 1 281t1 88q0 41 -20.5 65.5 t-39.5 24.5q-8 0 -18 -0.5t-19 -0.5q-38 0 -38 28z" />
<glyph unicode="&#xfc;" horiz-adv-x="1180" d="M336 1210q0 28 32.5 66.5t64.5 38.5q34 0 66 -36.5t32 -68.5q0 -34 -36 -71.5t-53 -37.5q-41 0 -73.5 39.5t-32.5 69.5zM663 1210q0 28 32.5 66.5t64.5 38.5q34 0 66 -36.5t32 -68.5q0 -34 -36 -71.5t-53 -37.5q-41 0 -73.5 39.5t-32.5 69.5zM59 806q0 23 27 34t110 11 q15 0 64 5.5t53 5.5q35 0 41.5 -14.5t6.5 -88.5q0 -41 -5 -140t-5 -220q0 -78 15 -138t38 -95t54.5 -57.5t60 -30.5t58.5 -8q132 0 191.5 55.5t59.5 193.5l-4 284q0 103 -16 138t-79 41q-45 4 -45 26q0 49 181 49q17 0 41 4.5t31 4.5q32 0 41.5 -11t9.5 -46q0 -2 -1 -31 t-3 -78.5t-3.5 -111t-2.5 -143t-1 -159.5q0 -125 11.5 -169.5t45.5 -44.5q10 0 28 0.5t26 0.5q48 0 48 -25q0 -24 -14.5 -30t-60.5 -6q-36 0 -119 -11.5t-88 -11.5q-15 0 -23 53t-13 53q-4 0 -28 -20.5t-56.5 -45t-90.5 -45t-121 -20.5q-330 0 -330 356q0 198 1 281t1 88 q0 41 -20.5 65.5t-39.5 24.5q-8 0 -18 -0.5t-19 -0.5q-38 0 -38 28z" />
<glyph unicode="&#xfd;" horiz-adv-x="1020" d="M451 1006q0 10 14.5 32t54.5 95.5t86 183.5q17 39 42 39q22 0 64.5 -13.5t42.5 -40.5q0 -44 -199 -255q-60 -64 -80 -64q-10 0 -17.5 6.5t-7.5 16.5zM40 844q0 12 14 18t27 6q58 0 119 -2t102 -2q34 0 62 2t54 2q14 0 25 -7.5t11 -15.5q0 -9 -1.5 -15.5t-6 -10.5t-7.5 -6 t-13 -3l-14 -2h-18h-19q-33 -1 -33 -56q0 -33 19 -83.5t80 -186.5l23 -50q10 -21 26 -58l26 -60l23 -50q12 -26 21 -39t14 -13q13 0 95 236t82 286q0 34 -13 51.5t-31.5 21t-37 4.5t-31.5 8.5t-13 25.5q0 25 39 25q30 0 80 -1t66 -1q20 0 71 1t57 1q42 0 42 -26 q0 -16 -14.5 -22.5t-36 -13t-31.5 -20.5q-35 -50 -112 -257l-181 -485l-35 -97l-32 -84l-25 -70l-21 -59l-18 -46.5t-15.5 -36t-13 -24t-11.5 -15t-10 -4.5q-2 0 -7 -0.5t-25.5 -1t-61.5 -0.5q-39 0 -39 27q0 6 29 43l64 85q35 47 64 112t29 119q0 59 -116 311.5t-203 416.5 q-22 42 -46 63.5t-38.5 24.5t-24 10t-9.5 24z" />
<glyph unicode="&#xfe;" horiz-adv-x="1114" d="M40 1420q0 11 3 17t14 11t24 8.5t41.5 12.5t57.5 21q17 7 52 23.5t60 25.5t43 9q25 0 25 -38q0 -9 -4 -49t-7.5 -110.5t-3.5 -152.5v-115q0 -52 -2 -156.5t-2 -124.5q0 -57 6 -57q4 0 28 22.5t57 49.5t94.5 49.5t131.5 22.5q93 0 166.5 -34.5t118 -92.5t68 -131 t23.5 -154q0 -89 -29.5 -176.5t-83 -159t-139 -116t-188.5 -44.5q-74 0 -127.5 12.5t-75 27t-38 27t-24.5 12.5q-6 0 -6 -17q1 0 1 -225v-26q0 -45 33 -98q19 -28 51.5 -38.5t59.5 -8t47.5 -3.5t20.5 -28q0 -25 -69 -25q-13 0 -66 3.5t-147 3.5q-37 0 -79.5 -3t-50.5 -3 q-45 0 -57.5 4.5t-12.5 15.5q0 14 9.5 21.5t23.5 9.5t31 11.5t31 26t23.5 55.5t9.5 97v39q0 242 3 402.5t3 163.5v45q0 29 3.5 360.5t3.5 419.5q0 46 -15.5 85t-34.5 47q-17 7 -82 7q-23 0 -23 18zM324 394q0 -20 1 -51t1 -52q0 -57 21 -102t52.5 -72t73 -44t79.5 -23.5 t75 -6.5q90 0 153 48.5t91.5 122.5t28.5 164q0 102 -35.5 193.5t-110.5 153.5t-175 62q-105 0 -187 -66q-29 -23 -41.5 -46t-19.5 -87.5t-7 -193.5z" />
<glyph unicode="&#xff;" horiz-adv-x="1020" d="M292 1210q0 28 32.5 66.5t64.5 38.5q34 0 66 -36.5t32 -68.5q0 -34 -36 -71.5t-53 -37.5q-41 0 -73.5 39.5t-32.5 69.5zM619 1210q0 28 32.5 66.5t64.5 38.5q34 0 66 -36.5t32 -68.5q0 -34 -36 -71.5t-53 -37.5q-41 0 -73.5 39.5t-32.5 69.5zM40 844q0 12 14 18t27 6 q58 0 119 -2t102 -2q34 0 62 2t54 2q14 0 25 -7.5t11 -15.5q0 -9 -1.5 -15.5t-6 -10.5t-7.5 -6t-13 -3l-14 -2h-18h-19q-33 -1 -33 -56q0 -33 19 -83.5t80 -186.5l23 -50q10 -21 26 -58l26 -60l23 -50q12 -26 21 -39t14 -13q13 0 95 236t82 286q0 34 -13 51.5t-31.5 21 t-37 4.5t-31.5 8.5t-13 25.5q0 25 39 25q30 0 80 -1t66 -1q20 0 71 1t57 1q42 0 42 -26q0 -16 -14.5 -22.5t-36 -13t-31.5 -20.5q-35 -50 -112 -257l-181 -485l-35 -97l-32 -84l-25 -70l-21 -59l-18 -46.5t-15.5 -36t-13 -24t-11.5 -15t-10 -4.5q-2 0 -7 -0.5t-25.5 -1 t-61.5 -0.5q-39 0 -39 27q0 6 29 43l64 85q35 47 64 112t29 119q0 59 -116 311.5t-203 416.5q-22 42 -46 63.5t-38.5 24.5t-24 10t-9.5 24z" />
<glyph unicode="&#x100;" horiz-adv-x="1663" d="M612 1747q0 38 34 38q157 0 225 -1.5t144 -1.5q20 0 26 -10t6 -50q0 -11 -7 -18t-13 -8.5t-10 -1.5q-14 0 -178.5 1t-206.5 1q-20 0 -20 51zM40 17q0 27 32 39q37 14 59.5 35t56.5 78t95 186l153 329l349 751q14 30 25 38.5t35 8.5q20 0 27 -10t25 -63q43 -126 96 -256 l227 -535q160 -375 175 -404q28 -57 62.5 -91t62.5 -43.5t52 -13.5t37.5 -11.5t13.5 -27.5q0 -32 -56 -32q-22 0 -88 6.5t-96 6.5q-38 0 -101 -3.5t-91 -3.5q-64 0 -80.5 4.5t-16.5 22.5q0 15 16 23.5t35.5 12.5t35.5 19t16 41q0 45 -51.5 185t-87.5 205q-7 12 -11 17.5 t-22 11.5t-50 6q-11 0 -90.5 -2t-157.5 -2h-108q-65 0 -94 -5t-40 -15.5t-24 -38.5l-41 -85l-38 -81l-26 -60q-15 -36 -20.5 -57t-5.5 -38q0 -39 15.5 -62t38 -30t44.5 -10.5t37.5 -11t15.5 -24.5q0 -15 -6 -22.5t-28 -7.5q-11 0 -70.5 1t-99.5 1q-44 0 -100.5 -4t-75.5 -4 q-61 0 -61 26zM555 692q0 -26 18.5 -32.5t86.5 -6.5h62l195 2q80 0 80 34q0 26 -100.5 252.5t-125.5 226.5q-18 0 -117 -226.5t-99 -249.5z" />
<glyph unicode="&#x101;" horiz-adv-x="945" d="M236 1207q0 38 34 38q157 0 225 -1.5t144 -1.5q20 0 26 -10t6 -50q0 -11 -7 -18t-13 -8.5t-10 -1.5q-14 0 -178.5 1t-206.5 1q-20 0 -20 51zM98 175q0 50 14.5 88.5t42 65t64 45.5t84.5 32.5t98 23.5l110 21q39 6 59 10q14 3 19.5 4.5t10.5 8.5t5 20q0 17 2 53t2 54 q0 62 -22.5 108.5t-56.5 69.5t-64.5 33t-56.5 10q-146 0 -146 -123q0 -17 4 -42t4 -32q0 -42 -37 -42q-13 0 -31 3t-41.5 11t-39 25.5t-15.5 41.5q0 80 106.5 152t236.5 72q63 0 113.5 -11t82 -26t54.5 -40.5t34 -45.5t16.5 -50t6.5 -45t1 -39q0 -148 -5 -234t-5 -148 q0 -64 11.5 -105.5t28.5 -57t37.5 -23t37.5 -7.5t28.5 -6.5t11.5 -23.5q0 -42 -128 -42q-33 0 -61 11.5t-45.5 28t-30 33.5t-19.5 28.5t-9 11.5t-17 -13t-40 -32t-56 -38t-73.5 -32t-83.5 -13q-69 0 -112.5 13.5t-77.5 48.5q-52 53 -52 144zM259 204q0 -70 40.5 -111.5 t115.5 -41.5q39 0 70 8.5t50.5 20.5t33.5 32t21 36.5t10.5 41t4 37.5t0.5 33v148q0 17 -15 17q-3 0 -6 -0.5t-7.5 -1.5t-6.5 -1q-33 -6 -46 -8t-45.5 -9t-48 -12t-43.5 -15t-42.5 -20.5t-33.5 -26.5t-28.5 -34t-16.5 -42t-7 -51z" />
<glyph unicode="&#x102;" horiz-adv-x="1663" d="M599 1825q0 5 22 5h9q6 0 14 -10.5t16.5 -26.5t25.5 -35t37.5 -35t54 -26.5t74.5 -10.5q46 0 81.5 15t53.5 36t30 42l20 36q8 15 15 15h9q22 0 22 -5q0 -34 -14.5 -76.5t-42.5 -84t-77 -69.5t-109 -28t-108.5 26.5t-76 66.5t-42 83t-14.5 82zM40 17q0 27 32 39 q37 14 59.5 35t56.5 78t95 186l153 329l349 751q14 30 25 38.5t35 8.5q20 0 27 -10t25 -63q43 -126 96 -256l227 -535q160 -375 175 -404q28 -57 62.5 -91t62.5 -43.5t52 -13.5t37.5 -11.5t13.5 -27.5q0 -32 -56 -32q-22 0 -88 6.5t-96 6.5q-38 0 -101 -3.5t-91 -3.5 q-64 0 -80.5 4.5t-16.5 22.5q0 15 16 23.5t35.5 12.5t35.5 19t16 41q0 45 -51.5 185t-87.5 205q-7 12 -11 17.5t-22 11.5t-50 6q-11 0 -90.5 -2t-157.5 -2h-108q-65 0 -94 -5t-40 -15.5t-24 -38.5l-41 -85l-38 -81l-26 -60q-15 -36 -20.5 -57t-5.5 -38q0 -39 15.5 -62 t38 -30t44.5 -10.5t37.5 -11t15.5 -24.5q0 -15 -6 -22.5t-28 -7.5q-11 0 -70.5 1t-99.5 1q-44 0 -100.5 -4t-75.5 -4q-61 0 -61 26zM555 692q0 -26 18.5 -32.5t86.5 -6.5h62l195 2q80 0 80 34q0 26 -100.5 252.5t-125.5 226.5q-18 0 -117 -226.5t-99 -249.5z" />
<glyph unicode="&#x103;" horiz-adv-x="945" d="M223 1285q0 5 22 5h9q6 0 14 -10.5t16.5 -26.5t25.5 -35t37.5 -35t54 -26.5t74.5 -10.5q46 0 81.5 15t53.5 36t30 42l20 36q8 15 15 15h9q22 0 22 -5q0 -34 -14.5 -76.5t-42.5 -84t-77 -69.5t-109 -28t-108.5 26.5t-76 66.5t-42 83t-14.5 82zM98 175q0 50 14.5 88.5 t42 65t64 45.5t84.5 32.5t98 23.5l110 21q39 6 59 10q14 3 19.5 4.5t10.5 8.5t5 20q0 17 2 53t2 54q0 62 -22.5 108.5t-56.5 69.5t-64.5 33t-56.5 10q-146 0 -146 -123q0 -17 4 -42t4 -32q0 -42 -37 -42q-13 0 -31 3t-41.5 11t-39 25.5t-15.5 41.5q0 80 106.5 152t236.5 72 q63 0 113.5 -11t82 -26t54.5 -40.5t34 -45.5t16.5 -50t6.5 -45t1 -39q0 -148 -5 -234t-5 -148q0 -64 11.5 -105.5t28.5 -57t37.5 -23t37.5 -7.5t28.5 -6.5t11.5 -23.5q0 -42 -128 -42q-33 0 -61 11.5t-45.5 28t-30 33.5t-19.5 28.5t-9 11.5t-17 -13t-40 -32t-56 -38 t-73.5 -32t-83.5 -13q-69 0 -112.5 13.5t-77.5 48.5q-52 53 -52 144zM259 204q0 -70 40.5 -111.5t115.5 -41.5q39 0 70 8.5t50.5 20.5t33.5 32t21 36.5t10.5 41t4 37.5t0.5 33v148q0 17 -15 17q-3 0 -6 -0.5t-7.5 -1.5t-6.5 -1q-33 -6 -46 -8t-45.5 -9t-48 -12t-43.5 -15 t-42.5 -20.5t-33.5 -26.5t-28.5 -34t-16.5 -42t-7 -51z" />
<glyph unicode="&#x104;" horiz-adv-x="1663" d="M40 17q0 27 32 39q47 18 74 53q42 51 150 280l105 228l384 818q14 30 25 38.5t35 8.5q20 0 27 -10t25 -63q43 -126 96 -256l227 -535q160 -375 175 -404q28 -57 62.5 -91t62.5 -43.5t52 -13.5t37.5 -11.5t13.5 -27.5q0 -32 -56 -32q-22 0 -88 6.5t-96 6.5q-51 0 -87 -3.5 t-75.5 -16.5t-63.5 -36t-40 -65t-16 -100q0 -34 31.5 -78.5t85.5 -44.5q23 0 43.5 13t35 26t22.5 13q5 0 10.5 -5t5.5 -13q0 -26 -61 -71t-124 -45q-40 0 -72.5 14t-51.5 34.5t-32 45t-17.5 43.5t-4.5 33q0 49 16.5 90.5t41.5 68t54 53.5l55 46q25 21 41.5 51t16.5 63 q0 46 -53 187.5t-88 203.5q-13 22 -22 27q-13 7 -41 7q-20 0 -87 -2t-105 -2q-244 -3 -259 -5q-50 -4 -65 -25q-6 -8 -16 -29l-41 -85l-38 -81l-26 -60q-15 -36 -20.5 -57t-5.5 -38q0 -39 15.5 -62t38 -30t44.5 -10.5t37.5 -11t15.5 -24.5q0 -15 -6 -22.5t-28 -7.5 q-11 0 -70.5 1t-99.5 1q-44 0 -100.5 -4t-75.5 -4q-61 0 -61 26zM555 692q0 -26 18.5 -32.5t86.5 -6.5h62l195 2q80 0 80 34q0 26 -100.5 252.5t-125.5 226.5q-18 0 -117 -226.5t-99 -249.5z" />
<glyph unicode="&#x105;" horiz-adv-x="945" d="M98 175q0 50 14.5 88.5t42 65t64 45.5t84.5 32.5t98 23.5l110 21q39 6 59 10q14 3 19.5 4.5t10.5 8.5t5 20q0 17 2 53t2 54q0 62 -22.5 108.5t-56.5 69.5t-64.5 33t-56.5 10q-146 0 -146 -123q0 -17 4 -42t4 -32q0 -42 -37 -42q-13 0 -31 3t-41.5 11t-39 25.5t-15.5 41.5 q0 80 106.5 152t236.5 72q63 0 113.5 -11t82 -26t54.5 -40.5t34 -45.5t16.5 -50t6.5 -45t1 -39q0 -148 -5 -234t-5 -148q0 -64 11.5 -105.5t28.5 -57t37.5 -23t37.5 -7.5t28.5 -6.5t11.5 -23.5t-15 -25t-53 -17t-62 -18q-158 -62 -158 -174q0 -56 30.5 -93.5t71.5 -37.5 q30 0 64 26.5t41 26.5t7 -16q0 -27 -58.5 -71.5t-121.5 -44.5q-76 0 -117 51.5t-41 123.5q0 46 24.5 85t60 63t71 41t60 26.5t24.5 12.5q0 4 -17 11q-31 13 -55 38t-35.5 44t-13.5 19t-17 -13t-40 -32t-56 -38t-73.5 -32t-83.5 -13q-69 0 -112.5 13.5t-77.5 48.5 q-52 53 -52 144zM259 204q0 -70 40.5 -111.5t115.5 -41.5q39 0 70 8.5t50.5 20.5t33.5 32t21 36.5t10.5 41t4 37.5t0.5 33v148q0 17 -15 17q-3 0 -6 -0.5t-7.5 -1.5t-6.5 -1q-33 -6 -46 -8t-45.5 -9t-48 -12t-43.5 -15t-42.5 -20.5t-33.5 -26.5t-28.5 -34t-16.5 -42t-7 -51z " />
<glyph unicode="&#x106;" horiz-adv-x="1653" d="M780 1546q0 10 14.5 32t54.5 95.5t86 183.5q17 39 42 39q22 0 64.5 -13.5t42.5 -40.5q0 -44 -199 -255q-60 -64 -80 -64q-10 0 -17.5 6.5t-7.5 16.5zM90 663q0 166 50.5 310t146 253.5t245 173t334.5 63.5q79 0 161 -15.5t143.5 -37.5t111.5 -44.5t80.5 -38t34.5 -15.5 q7 0 20 10.5t22 10.5q11 0 20.5 -8.5t10.5 -23.5q2 -59 9.5 -125.5t13.5 -110.5t6 -52q0 -36 -24 -36q-20 0 -35 29q-93 176 -237 274t-337 98q-168 0 -300.5 -73.5t-208 -209t-75.5 -309.5q0 -115 22.5 -218.5t74 -199t128.5 -164.5t194 -110t261 -41q73 0 141.5 20.5 t119.5 51.5t98.5 74t78.5 81t59 80q9 14 30 14q19 0 19 -27q0 -17 -5 -47.5t-11 -55.5l-12 -58l-10 -41q-5 -23 -32 -36q-85 -41 -131 -61t-116 -44t-137 -34t-144 -10q-129 0 -240 22t-193.5 60.5t-148.5 92.5t-110 116t-73.5 132t-42 139.5t-12.5 140.5z" />
<glyph unicode="&#x107;" horiz-adv-x="925" d="M435 1006q0 10 14.5 32t54.5 95.5t86 183.5q17 39 42 39q22 0 64.5 -13.5t42.5 -40.5q0 -44 -199 -255q-60 -64 -80 -64q-10 0 -17.5 6.5t-7.5 16.5zM80 394q0 126 57.5 235.5t168 179t250.5 69.5q72 0 153.5 -19.5t84.5 -46.5q5 -62 5 -98q0 -90 -22 -90q-12 0 -21.5 10 t-22 27.5t-25.5 28.5q-47 39 -123 74t-148 35q-15 0 -37 -7.5t-52 -31t-55 -59t-42.5 -99.5t-17.5 -144q0 -158 102.5 -276t248.5 -118q56 0 107 16.5t80 36.5l53 37q23 16 31 16q9 0 15 -6t6 -15q0 -7 -12.5 -27t-42.5 -48.5t-71 -54t-106 -44t-140 -18.5 q-192 0 -308 116.5t-116 320.5z" />
<glyph unicode="&#x108;" horiz-adv-x="1653" d="M629 1562q0 5 8 18l64 98q30 45 46 73l30 51q13 23 18.5 34t11.5 19t10 10t12 2h52q21 0 35 -23q33 -59 78 -127l71 -107q26 -39 26 -47q0 -16 -22 -16q-15 0 -109.5 87t-100.5 87q-13 0 -104 -86t-106 -86q-20 0 -20 13zM90 663q0 166 50.5 310t146 253.5t245 173 t334.5 63.5q79 0 161 -15.5t143.5 -37.5t111.5 -44.5t80.5 -38t34.5 -15.5q7 0 20 10.5t22 10.5q11 0 20.5 -8.5t10.5 -23.5q2 -59 9.5 -125.5t13.5 -110.5t6 -52q0 -36 -24 -36q-20 0 -35 29q-93 176 -237 274t-337 98q-168 0 -300.5 -73.5t-208 -209t-75.5 -309.5 q0 -115 22.5 -218.5t74 -199t128.5 -164.5t194 -110t261 -41q73 0 141.5 20.5t119.5 51.5t98.5 74t78.5 81t59 80q9 14 30 14q19 0 19 -27q0 -17 -5 -47.5t-11 -55.5l-12 -58l-10 -41q-5 -23 -32 -36q-85 -41 -131 -61t-116 -44t-137 -34t-144 -10q-129 0 -240 22 t-193.5 60.5t-148.5 92.5t-110 116t-73.5 132t-42 139.5t-12.5 140.5z" />
<glyph unicode="&#x109;" horiz-adv-x="925" d="M284 1022q0 5 8 18l64 98q30 45 46 73l30 51q13 23 18.5 34t11.5 19t10 10t12 2h52q21 0 35 -23q33 -59 78 -127l71 -107q26 -39 26 -47q0 -16 -22 -16q-15 0 -109.5 87t-100.5 87q-13 0 -104 -86t-106 -86q-20 0 -20 13zM80 394q0 126 57.5 235.5t168 179t250.5 69.5 q72 0 153.5 -19.5t84.5 -46.5q5 -62 5 -98q0 -90 -22 -90q-12 0 -21.5 10t-22 27.5t-25.5 28.5q-47 39 -123 74t-148 35q-15 0 -37 -7.5t-52 -31t-55 -59t-42.5 -99.5t-17.5 -144q0 -158 102.5 -276t248.5 -118q56 0 107 16.5t80 36.5l53 37q23 16 31 16q9 0 15 -6t6 -15 q0 -7 -12.5 -27t-42.5 -48.5t-71 -54t-106 -44t-140 -18.5q-192 0 -308 116.5t-116 320.5z" />
<glyph unicode="&#x10a;" horiz-adv-x="1653" d="M765 1749q0 24 35 67.5t66 43.5q34 0 65 -41t31 -75q0 -33 -39.5 -72.5t-57.5 -39.5q-40 0 -70 43t-30 74zM90 663q0 166 50.5 310t146 253.5t245 173t334.5 63.5q79 0 161 -15.5t143.5 -37.5t111.5 -44.5t80.5 -38t34.5 -15.5q7 0 20 10.5t22 10.5q11 0 20.5 -8.5 t10.5 -23.5q2 -59 9.5 -125.5t13.5 -110.5t6 -52q0 -36 -24 -36q-20 0 -35 29q-93 176 -237 274t-337 98q-168 0 -300.5 -73.5t-208 -209t-75.5 -309.5q0 -115 22.5 -218.5t74 -199t128.5 -164.5t194 -110t261 -41q73 0 141.5 20.5t119.5 51.5t98.5 74t78.5 81t59 80 q9 14 30 14q19 0 19 -27q0 -17 -5 -47.5t-11 -55.5l-12 -58l-10 -41q-5 -23 -32 -36q-85 -41 -131 -61t-116 -44t-137 -34t-144 -10q-129 0 -240 22t-193.5 60.5t-148.5 92.5t-110 116t-73.5 132t-42 139.5t-12.5 140.5z" />
<glyph unicode="&#x10b;" horiz-adv-x="925" d="M420 1209q0 24 35 67.5t66 43.5q34 0 65 -41t31 -75q0 -33 -39.5 -72.5t-57.5 -39.5q-40 0 -70 43t-30 74zM80 394q0 126 57.5 235.5t168 179t250.5 69.5q72 0 153.5 -19.5t84.5 -46.5q5 -62 5 -98q0 -90 -22 -90q-12 0 -21.5 10t-22 27.5t-25.5 28.5q-47 39 -123 74 t-148 35q-15 0 -37 -7.5t-52 -31t-55 -59t-42.5 -99.5t-17.5 -144q0 -158 102.5 -276t248.5 -118q56 0 107 16.5t80 36.5l53 37q23 16 31 16q9 0 15 -6t6 -15q0 -7 -12.5 -27t-42.5 -48.5t-71 -54t-106 -44t-140 -18.5q-192 0 -308 116.5t-116 320.5z" />
<glyph unicode="&#x10c;" horiz-adv-x="1653" d="M629 1851q0 16 22 16q15 0 109.5 -87t100.5 -87q13 0 104 86t106 86q20 0 20 -13q0 -5 -8 -18l-64 -98q-30 -45 -46 -73l-30 -51q-13 -23 -18.5 -34t-11.5 -19t-10 -10t-12 -2h-52q-21 0 -35 23q-33 59 -78 127l-71 107q-26 39 -26 47zM90 663q0 166 50.5 310t146 253.5 t245 173t334.5 63.5q79 0 161 -15.5t143.5 -37.5t111.5 -44.5t80.5 -38t34.5 -15.5q7 0 20 10.5t22 10.5q11 0 20.5 -8.5t10.5 -23.5q2 -59 9.5 -125.5t13.5 -110.5t6 -52q0 -36 -24 -36q-20 0 -35 29q-93 176 -237 274t-337 98q-168 0 -300.5 -73.5t-208 -209t-75.5 -309.5 q0 -115 22.5 -218.5t74 -199t128.5 -164.5t194 -110t261 -41q73 0 141.5 20.5t119.5 51.5t98.5 74t78.5 81t59 80q9 14 30 14q19 0 19 -27q0 -17 -5 -47.5t-11 -55.5l-12 -58l-10 -41q-5 -23 -32 -36q-85 -41 -131 -61t-116 -44t-137 -34t-144 -10q-129 0 -240 22 t-193.5 60.5t-148.5 92.5t-110 116t-73.5 132t-42 139.5t-12.5 140.5z" />
<glyph unicode="&#x10d;" horiz-adv-x="925" d="M284 1311q0 16 22 16q15 0 109.5 -87t100.5 -87q13 0 104 86t106 86q20 0 20 -13q0 -5 -8 -18l-64 -98q-30 -45 -46 -73l-30 -51q-13 -23 -18.5 -34t-11.5 -19t-10 -10t-12 -2h-52q-21 0 -35 23q-33 59 -78 127l-71 107q-26 39 -26 47zM80 394q0 126 57.5 235.5t168 179 t250.5 69.5q72 0 153.5 -19.5t84.5 -46.5q5 -62 5 -98q0 -90 -22 -90q-12 0 -21.5 10t-22 27.5t-25.5 28.5q-47 39 -123 74t-148 35q-15 0 -37 -7.5t-52 -31t-55 -59t-42.5 -99.5t-17.5 -144q0 -158 102.5 -276t248.5 -118q56 0 107 16.5t80 36.5l53 37q23 16 31 16 q9 0 15 -6t6 -15q0 -7 -12.5 -27t-42.5 -48.5t-71 -54t-106 -44t-140 -18.5q-192 0 -308 116.5t-116 320.5z" />
<glyph unicode="&#x10e;" horiz-adv-x="1623" d="M535 1851q0 16 22 16q15 0 109.5 -87t100.5 -87q13 0 104 86t106 86q20 0 20 -13q0 -5 -8 -18l-64 -98q-30 -45 -46 -73l-30 -51q-13 -23 -18.5 -34t-11.5 -19t-10 -10t-12 -2h-52q-21 0 -35 23q-33 59 -78 127l-71 107q-26 39 -26 47zM40 1433q0 18 18.5 22t87.5 4h177 q51 0 188 4t211 4q113 0 226 -26.5t218.5 -82t186.5 -133t130 -188t49 -238.5q0 -117 -15 -209t-37 -155t-64 -121.5t-80 -95.5t-101 -89q-60 -50 -176.5 -93t-240.5 -43q-12 0 -209 6t-283 6q-72 0 -134 -5.5t-72 -5.5q-29 0 -38.5 6t-9.5 20q0 13 6 20.5t13.5 10.5t24 7.5 t27.5 9.5q33 14 60.5 54t27.5 79q0 114 1.5 293t1.5 262q0 73 -1 229.5t-1 289.5q0 36 -34.5 71.5t-75.5 38.5q-54 4 -67 13q-15 10 -15 35zM404 289q0 -31 0.5 -51.5t4 -39t6.5 -28.5t12.5 -20t17 -14.5t25 -11t31 -9.5t40.5 -11l49 -13q69 -21 150 -21h40q140 0 238.5 39 t187.5 126q79 77 115.5 206t36.5 265q0 133 -42.5 245.5t-113 190t-162.5 132t-189.5 79.5t-194.5 25h-67q-21 0 -52 -3t-42.5 -4t-30.5 -10.5t-23.5 -15t-14 -24.5t-10.5 -32t-4 -44.5t-3 -54.5v-71q0 -45 -1.5 -213t-1.5 -182q0 -123 -1 -265t-1 -170z" />
<glyph unicode="&#x10f;" horiz-adv-x="1157" d="M1081 1470q0 3 2 5.5t7 7t8 7.5l12 8l13 9q3 2 16 13.5t23 16.5t22 5q6 0 22 -7t35.5 -21t34 -40t14.5 -58q0 -48 -22 -88t-52 -62t-55.5 -34t-39.5 -12q-9 0 -14.5 5t-5.5 9q0 7 21.5 18.5t43 35t21.5 60.5q0 31 -16.5 51.5t-36.5 28t-36.5 18.5t-16.5 24zM80 399 q0 93 32 180.5t92 159.5t157 115.5t217 43.5q55 0 140.5 -30t91.5 -30q11 0 11 73q0 156 2 203.5t2 60.5q0 45 -0.5 66t-3.5 53.5t-9.5 47.5t-18.5 32t-31 23.5t-45 6.5h-22q-31 0 -37 2.5t-6 14.5v2q0 13 20 21t83 28t128 50l24 12q18 8 31.5 13t24.5 5q25 0 25 -41 q0 -6 -14 -174t-14 -270q0 -212 -1.5 -457t-1.5 -291q0 -141 13 -187.5t58 -59.5q8 -3 27 -6.5t30.5 -6t21.5 -10.5t10 -20q0 -7 -7 -12t-44.5 -12t-107.5 -13q-32 -3 -74.5 -12t-53.5 -9q-23 0 -23 22q0 7 -3 31t-3 45q0 35 -19 35q-6 0 -29.5 -21t-54.5 -45.5t-89 -45.5 t-125 -21q-78 0 -145 23.5t-114 64t-80 95t-49 116.5t-16 129zM227 495q0 -97 39.5 -191t119.5 -160t182 -66q92 0 167 47t75 115q1 119 1.5 196t1 98.5t0.5 33.5v22q0 75 -15.5 108.5t-42.5 49.5q-58 35 -126 62t-118 27q-132 0 -208 -97t-76 -245z" />
<glyph unicode="&#x110;" horiz-adv-x="1623" d="M40 1433q0 18 18.5 22t87.5 4h177q51 0 188 4t211 4q113 0 226 -26.5t218.5 -82t186.5 -133t130 -188t49 -238.5q0 -117 -15 -209t-37 -155t-64 -121.5t-80 -95.5t-101 -89q-60 -50 -176.5 -93t-240.5 -43q-12 0 -209 6t-283 6q-72 0 -134 -5.5t-72 -5.5q-29 0 -38.5 6 t-9.5 20q0 13 6 20.5t13.5 10.5t24 7.5t27.5 9.5q33 14 60.5 54t27.5 79q0 34 3 463q0 19 -6 25.5t-24 6.5q-62 1 -132 1q-10 0 -17.5 11.5t-7.5 34.5q0 26 6.5 34t17.5 8q28 0 133 1q20 0 25 7t5 29q0 56 -1 196.5t-1 256.5q0 36 -34.5 71.5t-75.5 38.5q-54 4 -67 13 q-15 10 -15 35zM404 289q0 -31 0.5 -51.5t4 -38.5t6.5 -28.5t12.5 -20.5t17 -14.5t24.5 -10.5t31 -9l41 -11q27 -7 49 -14q69 -21 150 -21h40q140 0 238.5 39t187.5 126q79 77 115.5 206t36.5 265q0 133 -42.5 245.5t-113 190t-162.5 132t-189.5 79.5t-194.5 25h-67 q-21 0 -52 -3t-42.5 -4t-30.5 -10.5t-23.5 -15t-14 -24.5t-10.5 -32t-4 -44.5t-3 -54.5v-71q0 -89 -2 -287q0 -28 7 -36.5t37 -8.5h309q29 0 35.5 -9.5t6.5 -37.5q0 -12 -1 -18.5t-5 -13.5t-14 -9.5t-26 -2.5q-43 0 -151.5 -1t-156.5 -1h-20q-16 0 -19 -4t-3 -21v-10 q0 -83 -1 -212.5t-1 -157.5z" />
<glyph unicode="&#x111;" horiz-adv-x="1157" d="M80 399q0 93 32 180.5t92 159.5t157 115.5t217 43.5q55 0 140.5 -30t91.5 -30q11 0 11 73q0 40 0.5 88.5t0.5 59.5q0 21 -4 29t-21 8h-286q-29 0 -35.5 9t-6.5 36q0 12 1 18.5t5 13.5t14 9.5t26 2.5q36 0 128.5 1t137.5 1h16q12 0 17 1t8 5.5t3 15.5q0 41 -2 66.5t-8 53 t-17.5 42t-31.5 24t-49 9.5h-22q-31 0 -37 2.5t-6 14.5v2q0 13 20 21t83 28t128 50l24 12q18 8 31.5 13t24.5 5q25 0 25 -41q0 -14 -12 -153.5t-12 -158.5q0 -10 9 -12.5t50 -2.5h66q10 0 17.5 -11.5t7.5 -34.5q0 -26 -6.5 -34t-17.5 -8h-93q-25 0 -31 -4.5t-6 -24.5 q0 -212 -1.5 -457t-1.5 -291q0 -141 13 -187.5t58 -59.5q8 -3 27 -6.5t30.5 -6t21.5 -10.5t10 -20q0 -7 -7 -12t-44.5 -12t-107.5 -13q-32 -3 -74.5 -12t-53.5 -9q-23 0 -23 22q0 7 -3 31t-3 45q0 35 -19 35q-6 0 -29.5 -21t-54.5 -45.5t-89 -45.5t-125 -21q-78 0 -145 23.5 t-114 64t-80 95t-49 116.5t-16 129zM227 495q0 -97 39.5 -191t119.5 -160t182 -66q92 0 166.5 47t75.5 115q1 119 1.5 196t1 98.5t0.5 33.5v22q0 75 -15.5 108.5t-42.5 49.5q-58 35 -126 62t-118 27q-132 0 -208 -97t-76 -245z" />
<glyph unicode="&#x112;" horiz-adv-x="1237" d="M413 1747q0 38 34 38q157 0 225 -1.5t144 -1.5q20 0 26 -10t6 -50q0 -11 -7 -18t-13 -8.5t-10 -1.5q-14 0 -178.5 1t-206.5 1q-20 0 -20 51zM40 1432q0 28 59 28q8 0 26 -1.5t29 -1.5q6 0 192.5 -6t306.5 -6q44 0 213 4.5t197 4.5q38 0 38 -47q0 -12 -12 -81t-12 -128 q0 -18 -10 -31.5t-22 -13.5q-13 0 -22 11.5t-9 32.5q0 55 -35.5 99t-86.5 48q-172 13 -282 13h-52h-52q-17 0 -37 -4t-26 -5.5t-15 -14t-10 -19.5t-3.5 -32t-3.5 -42v-8q-4 -77 -7 -342q0 -101 38 -103q19 -1 51 -1q15 0 42.5 0.5t44.5 0.5h63q123 0 163.5 8t73.5 30 q22 15 33.5 36.5t13.5 37t8.5 26.5t21.5 11q17 0 22 -7t5 -26q0 -14 -9 -94.5t-9 -120.5q0 -38 3.5 -73t3.5 -51q0 -53 -14 -53q-19 0 -31 19t-17 43t-17.5 50.5t-30.5 38.5q-43 29 -198 29h-99q-39 0 -49.5 0.5t-17.5 0.5h-13q-84 0 -84 -39q0 -59 -2 -148.5t-2 -146.5 q0 -14 -0.5 -41.5t-0.5 -40.5q0 -58 12.5 -106t36.5 -56q51 -16 88 -16q117 0 212 8.5t155 22t106 31t69 36t40 36t23.5 31t14.5 22t18 8.5q25 0 25 -34q0 -87 -88.5 -178.5t-154.5 -91.5q-148 0 -332.5 11t-229.5 11q-58 0 -145 -10t-135 -10q-14 0 -21 0.5t-14 6t-7 15.5 q0 18 0.5 24t6 10.5t13 4.5t27 6.5t41.5 17.5q34 16 49.5 48.5t23 111t7.5 237.5v254q0 55 3 172.5t3 182.5q0 75 -5 185q-3 60 -51.5 92.5t-114.5 34.5q-15 0 -23 6.5t-9 13t-1 18.5z" />
<glyph unicode="&#x113;" horiz-adv-x="954" d="M258 1207q0 38 34 38q157 0 225 -1.5t144 -1.5q20 0 26 -10t6 -50q0 -11 -7 -18t-13 -8.5t-10 -1.5q-14 0 -178.5 1t-206.5 1q-20 0 -20 51zM80 398q0 133 51 243.5t147 177t217 66.5q87 0 157 -31.5t109.5 -74.5t66 -92.5t35.5 -82t9 -45.5q0 -21 -19.5 -29t-63.5 -8 h-465q-17 0 -37.5 0.5t-24.5 0.5q-16 0 -19 -4t-3 -20q0 -98 30 -178.5t79.5 -130t110 -76.5t125.5 -27q50 0 98.5 14t78.5 31.5t56.5 31.5t36.5 14q8 0 13.5 -6t5.5 -13q0 -8 -14 -29t-45 -50t-71.5 -55t-102 -44.5t-129.5 -18.5q-85 0 -160.5 26t-137 77t-98 137 t-36.5 196zM252 601q0 -16 5.5 -23t21.5 -7q55 0 203 6.5t157 6.5q28 0 35.5 5t7.5 19q0 18 -7 44t-24.5 58t-42 59t-63 45.5t-84.5 18.5q-52 0 -94 -26t-66 -64t-36.5 -75.5t-12.5 -66.5z" />
<glyph unicode="&#x114;" horiz-adv-x="1237" d="M400 1825q0 5 22 5h9q6 0 14 -10.5t16.5 -26.5t25.5 -35t37.5 -35t54 -26.5t74.5 -10.5q46 0 81.5 15t53.5 36t30 42l20 36q8 15 15 15h9q22 0 22 -5q0 -34 -14.5 -76.5t-42.5 -84t-77 -69.5t-109 -28t-108.5 26.5t-76 66.5t-42 83t-14.5 82zM40 1432q0 28 59 28 q8 0 26 -1.5t29 -1.5q6 0 192.5 -6t306.5 -6q44 0 213 4.5t197 4.5q38 0 38 -47q0 -12 -12 -81t-12 -128q0 -18 -10 -31.5t-22 -13.5q-13 0 -22 11.5t-9 32.5q0 55 -35.5 99t-86.5 48q-172 13 -282 13h-52h-52q-17 0 -37 -4t-26 -5.5t-15 -14t-10 -19.5t-3.5 -32t-3.5 -42 v-8q-4 -77 -7 -342q0 -101 38 -103q19 -1 51 -1q15 0 42.5 0.5t44.5 0.5h63q123 0 163.5 8t73.5 30q22 15 33.5 36.5t13.5 37t8.5 26.5t21.5 11q17 0 22 -7t5 -26q0 -14 -9 -94.5t-9 -120.5q0 -38 3.5 -73t3.5 -51q0 -53 -14 -53q-19 0 -31 19t-17 43t-17.5 50.5t-30.5 38.5 q-43 29 -198 29h-99q-39 0 -49.5 0.5t-17.5 0.5h-13q-84 0 -84 -39q0 -59 -2 -148.5t-2 -146.5q0 -14 -0.5 -41.5t-0.5 -40.5q0 -58 12.5 -106t36.5 -56q51 -16 88 -16q117 0 212 8.5t155 22t106 31t69 36t40 36t23.5 31t14.5 22t18 8.5q25 0 25 -34q0 -87 -88.5 -178.5 t-154.5 -91.5q-148 0 -332.5 11t-229.5 11q-58 0 -145 -10t-135 -10q-14 0 -21 0.5t-14 6t-7 15.5q0 18 0.5 24t6 10.5t13 4.5t27 6.5t41.5 17.5q34 16 49.5 48.5t23 111t7.5 237.5v254q0 55 3 172.5t3 182.5q0 75 -5 185q-3 60 -51.5 92.5t-114.5 34.5q-15 0 -23 6.5t-9 13 t-1 18.5z" />
<glyph unicode="&#x115;" horiz-adv-x="954" d="M245 1285q0 5 22 5h9q6 0 14 -10.5t16.5 -26.5t25.5 -35t37.5 -35t54 -26.5t74.5 -10.5q46 0 81.5 15t53.5 36t30 42l20 36q8 15 15 15h9q22 0 22 -5q0 -34 -14.5 -76.5t-42.5 -84t-77 -69.5t-109 -28t-108.5 26.5t-76 66.5t-42 83t-14.5 82zM80 398q0 133 51 243.5 t147 177t217 66.5q87 0 157 -31.5t109.5 -74.5t66 -92.5t35.5 -82t9 -45.5q0 -21 -19.5 -29t-63.5 -8h-465q-17 0 -37.5 0.5t-24.5 0.5q-16 0 -19 -4t-3 -20q0 -98 30 -178.5t79.5 -130t110 -76.5t125.5 -27q50 0 98.5 14t78.5 31.5t56.5 31.5t36.5 14q8 0 13.5 -6t5.5 -13 q0 -8 -14 -29t-45 -50t-71.5 -55t-102 -44.5t-129.5 -18.5q-85 0 -160.5 26t-137 77t-98 137t-36.5 196zM252 601q0 -16 5.5 -23t21.5 -7q55 0 203 6.5t157 6.5q28 0 35.5 5t7.5 19q0 18 -7 44t-24.5 58t-42 59t-63 45.5t-84.5 18.5q-52 0 -94 -26t-66 -64t-36.5 -75.5 t-12.5 -66.5z" />
<glyph unicode="&#x116;" horiz-adv-x="1237" d="M537 1749q0 24 35 67.5t66 43.5q34 0 65 -41t31 -75q0 -33 -39.5 -72.5t-57.5 -39.5q-40 0 -70 43t-30 74zM40 1432q0 28 59 28q8 0 26 -1.5t29 -1.5q6 0 192.5 -6t306.5 -6q44 0 213 4.5t197 4.5q38 0 38 -47q0 -12 -12 -81t-12 -128q0 -18 -10 -31.5t-22 -13.5 q-13 0 -22 11.5t-9 32.5q0 55 -35.5 99t-86.5 48q-172 13 -282 13h-52h-52q-17 0 -37 -4t-26 -5.5t-15 -14t-10 -19.5t-3.5 -32t-3.5 -42v-8q-4 -77 -7 -342q0 -101 38 -103q19 -1 51 -1q15 0 42.5 0.5t44.5 0.5h63q123 0 163.5 8t73.5 30q22 15 33.5 36.5t13.5 37t8.5 26.5 t21.5 11q17 0 22 -7t5 -26q0 -14 -9 -94.5t-9 -120.5q0 -38 3.5 -73t3.5 -51q0 -53 -14 -53q-19 0 -31 19t-17 43t-17.5 50.5t-30.5 38.5q-43 29 -198 29h-99q-39 0 -49.5 0.5t-17.5 0.5h-13q-84 0 -84 -39q0 -59 -2 -148.5t-2 -146.5q0 -14 -0.5 -41.5t-0.5 -40.5 q0 -58 12.5 -106t36.5 -56q51 -16 88 -16q117 0 212 8.5t155 22t106 31t69 36t40 36t23.5 31t14.5 22t18 8.5q25 0 25 -34q0 -87 -88.5 -178.5t-154.5 -91.5q-148 0 -332.5 11t-229.5 11q-58 0 -145 -10t-135 -10q-14 0 -21 0.5t-14 6t-7 15.5q0 18 0.5 24t6 10.5t13 4.5 t27 6.5t41.5 17.5q34 16 49.5 48.5t23 111t7.5 237.5v254q0 55 3 172.5t3 182.5q0 75 -5 185q-3 60 -51.5 92.5t-114.5 34.5q-15 0 -23 6.5t-9 13t-1 18.5z" />
<glyph unicode="&#x117;" horiz-adv-x="954" d="M382 1209q0 24 35 67.5t66 43.5q34 0 65 -41t31 -75q0 -33 -39.5 -72.5t-57.5 -39.5q-40 0 -70 43t-30 74zM80 398q0 133 51 243.5t147 177t217 66.5q87 0 157 -31.5t109.5 -74.5t66 -92.5t35.5 -82t9 -45.5q0 -21 -19.5 -29t-63.5 -8h-465q-17 0 -37.5 0.5t-24.5 0.5 q-16 0 -19 -4t-3 -20q0 -98 30 -178.5t79.5 -130t110 -76.5t125.5 -27q50 0 98.5 14t78.5 31.5t56.5 31.5t36.5 14q8 0 13.5 -6t5.5 -13q0 -8 -14 -29t-45 -50t-71.5 -55t-102 -44.5t-129.5 -18.5q-85 0 -160.5 26t-137 77t-98 137t-36.5 196zM252 601q0 -16 5.5 -23 t21.5 -7q55 0 203 6.5t157 6.5q28 0 35.5 5t7.5 19q0 18 -7 44t-24.5 58t-42 59t-63 45.5t-84.5 18.5q-52 0 -94 -26t-66 -64t-36.5 -75.5t-12.5 -66.5z" />
<glyph unicode="&#x118;" horiz-adv-x="1237" d="M40 1432q0 28 59 28q8 0 26 -1.5t29 -1.5q6 0 192.5 -6t306.5 -6q44 0 213 4.5t197 4.5q38 0 38 -47q0 -12 -12 -81t-12 -128q0 -18 -10 -31.5t-22 -13.5q-13 0 -22 11.5t-9 32.5q0 55 -35.5 99t-86.5 48q-172 13 -282 13h-52h-52q-17 0 -37 -4t-26 -5.5t-15 -14 t-10 -19.5t-3.5 -32t-3.5 -42v-8q-4 -77 -7 -342q0 -101 38 -103q19 -1 51 -1q15 0 42.5 0.5t44.5 0.5h63q123 0 163.5 8t73.5 30q22 15 33.5 36.5t13.5 37t8.5 26.5t21.5 11q17 0 22 -7t5 -26q0 -14 -9 -94.5t-9 -120.5q0 -38 3.5 -73t3.5 -51q0 -53 -14 -53q-19 0 -31 19 t-17 43t-17.5 50.5t-30.5 38.5q-43 29 -198 29h-99q-39 0 -49.5 0.5t-17.5 0.5h-13q-84 0 -84 -39q0 -59 -2 -148.5t-2 -146.5q0 -14 -0.5 -41.5t-0.5 -40.5q0 -58 12.5 -106t36.5 -56q51 -16 88 -16q117 0 212 8.5t155 22t106 31t69 36t40 36t23.5 31t14.5 22t18 8.5 q25 0 25 -34q0 -27 -12 -63q-18 -49 -53 -90.5t-60 -59.5t-67 -45q-3 -1 -13 -7.5t-27.5 -22t-33 -35t-27 -50.5t-11.5 -64q0 -76 36.5 -116t83.5 -40q35 0 67.5 21t35.5 21q15 0 15 -13q0 -35 -51.5 -74t-126.5 -39q-90 0 -140 56t-50 128q0 35 14 70t33.5 60.5t39.5 45.5 t34 31.5t14 12.5q0 2 -25 4q-118 2 -275.5 11.5t-205.5 9.5q-58 0 -145 -10t-135 -10q-14 0 -21 0.5t-14 6t-7 15.5q0 18 0.5 24t6 10.5t13 4.5t27 6.5t41.5 17.5q34 16 49.5 48.5t23 111t7.5 237.5v254q0 55 3 172.5t3 182.5q0 75 -5 185q-3 60 -51.5 92.5t-114.5 34.5 q-15 0 -23 6.5t-9 13t-1 18.5z" />
<glyph unicode="&#x119;" horiz-adv-x="954" d="M80 398q0 133 51 243.5t147 177t217 66.5q87 0 157 -31.5t109.5 -74.5t66 -92.5t35.5 -82t9 -45.5q0 -21 -19.5 -29t-63.5 -8h-465q-17 0 -37.5 0.5t-24.5 0.5q-16 0 -19 -4t-3 -20q0 -98 30 -178.5t79.5 -130t110 -76.5t125.5 -27q50 0 98.5 14t78.5 31.5t56.5 31.5 t36.5 14q8 0 13.5 -6t5.5 -13q0 -20 -42 -57l-94 -81q-52 -44 -70 -74q-40 -67 -40 -121q0 -93 56 -137q30 -23 64 -23q35 0 65 21t33 21q15 0 15 -13q0 -35 -49 -74t-124 -39q-49 0 -89 23q-43 25 -67 69t-24 96t26 98.5t52 72t26 26.5q0 5 -5 5q-1 0 -5.5 -1t-12.5 -2.5 t-19 -3t-26.5 -2.5t-31.5 -1q-85 0 -160.5 26t-137 77t-98 137t-36.5 196zM252 601q0 -16 5.5 -23t21.5 -7q55 0 203 6.5t157 6.5q28 0 35.5 5t7.5 19q0 18 -7 44t-24.5 58t-42 59t-63 45.5t-84.5 18.5q-52 0 -94 -26t-66 -64t-36.5 -75.5t-12.5 -66.5z" />
<glyph unicode="&#x11a;" horiz-adv-x="1237" d="M401 1851q0 16 22 16q15 0 109.5 -87t100.5 -87q13 0 104 86t106 86q20 0 20 -13q0 -5 -8 -18l-64 -98q-30 -45 -46 -73l-30 -51q-13 -23 -18.5 -34t-11.5 -19t-10 -10t-12 -2h-52q-21 0 -35 23q-33 59 -78 127l-71 107q-26 39 -26 47zM40 1432q0 28 59 28q8 0 26 -1.5 t29 -1.5q6 0 192.5 -6t306.5 -6q44 0 213 4.5t197 4.5q38 0 38 -47q0 -12 -12 -81t-12 -128q0 -18 -10 -31.5t-22 -13.5q-13 0 -22 11.5t-9 32.5q0 55 -35.5 99t-86.5 48q-172 13 -282 13h-52h-52q-17 0 -37 -4t-26 -5.5t-15 -14t-10 -19.5t-3.5 -32t-3.5 -42v-8 q-4 -77 -7 -342q0 -101 38 -103q19 -1 51 -1q15 0 42.5 0.5t44.5 0.5h63q123 0 163.5 8t73.5 30q22 15 33.5 36.5t13.5 37t8.5 26.5t21.5 11q17 0 22 -7t5 -26q0 -14 -9 -94.5t-9 -120.5q0 -38 3.5 -73t3.5 -51q0 -53 -14 -53q-19 0 -31 19t-17 43t-17.5 50.5t-30.5 38.5 q-43 29 -198 29h-99q-39 0 -49.5 0.5t-17.5 0.5h-13q-84 0 -84 -39q0 -59 -2 -148.5t-2 -146.5q0 -14 -0.5 -41.5t-0.5 -40.5q0 -58 12.5 -106t36.5 -56q51 -16 88 -16q117 0 212 8.5t155 22t106 31t69 36t40 36t23.5 31t14.5 22t18 8.5q25 0 25 -34q0 -87 -88.5 -178.5 t-154.5 -91.5q-148 0 -332.5 11t-229.5 11q-58 0 -145 -10t-135 -10q-14 0 -21 0.5t-14 6t-7 15.5q0 18 0.5 24t6 10.5t13 4.5t27 6.5t41.5 17.5q34 16 49.5 48.5t23 111t7.5 237.5v254q0 55 3 172.5t3 182.5q0 75 -5 185q-3 60 -51.5 92.5t-114.5 34.5q-15 0 -23 6.5t-9 13 t-1 18.5z" />
<glyph unicode="&#x11b;" horiz-adv-x="954" d="M246 1311q0 16 22 16q15 0 109.5 -87t100.5 -87q13 0 104 86t106 86q20 0 20 -13q0 -5 -8 -18l-64 -98q-30 -45 -46 -73l-30 -51q-13 -23 -18.5 -34t-11.5 -19t-10 -10t-12 -2h-52q-21 0 -35 23q-33 59 -78 127l-71 107q-26 39 -26 47zM80 398q0 133 51 243.5t147 177 t217 66.5q87 0 157 -31.5t109.5 -74.5t66 -92.5t35.5 -82t9 -45.5q0 -21 -19.5 -29t-63.5 -8h-465q-17 0 -37.5 0.5t-24.5 0.5q-16 0 -19 -4t-3 -20q0 -98 30 -178.5t79.5 -130t110 -76.5t125.5 -27q50 0 98.5 14t78.5 31.5t56.5 31.5t36.5 14q8 0 13.5 -6t5.5 -13 q0 -8 -14 -29t-45 -50t-71.5 -55t-102 -44.5t-129.5 -18.5q-85 0 -160.5 26t-137 77t-98 137t-36.5 196zM252 601q0 -16 5.5 -23t21.5 -7q55 0 203 6.5t157 6.5q28 0 35.5 5t7.5 19q0 18 -7 44t-24.5 58t-42 59t-63 45.5t-84.5 18.5q-52 0 -94 -26t-66 -64t-36.5 -75.5 t-12.5 -66.5z" />
<glyph unicode="&#x11c;" horiz-adv-x="1675" d="M633 1562q0 5 8 18l64 98q30 45 46 73l30 51q13 23 18.5 34t11.5 19t10 10t12 2h52q21 0 35 -23q33 -59 78 -127l71 -107q26 -39 26 -47q0 -16 -22 -16q-15 0 -109.5 87t-100.5 87q-13 0 -104 -86t-106 -86q-20 0 -20 13zM90 674q0 165 52 309t150.5 253.5t252.5 173 t345 63.5q97 0 183.5 -15t142 -36.5t96 -43t62.5 -36.5t26 -15q7 0 28 15.5t30 15.5q29 0 31 -42q2 -59 9.5 -124.5t13.5 -108t6 -50.5q0 -36 -24 -36t-35 24q-72 156 -240.5 263.5t-345.5 107.5q-123 0 -230 -40t-188 -115t-127 -191.5t-46 -259.5q0 -111 26 -218.5 t78 -200.5t124 -164t170.5 -112t210.5 -41q158 0 285.5 71t141.5 164q7 56 7 257q0 53 -15 86t-37 43t-48 15.5t-48 5.5t-37 10.5t-15 33.5q0 21 37 21q26 0 113 -5t113 -5q42 0 89 0.5t77 0.5l30 1q31 0 31 -18q0 -13 -25 -23.5t-52.5 -27t-31.5 -43.5q-15 -95 -15 -230 q0 -80 2.5 -131t5 -71.5t2.5 -25.5q0 -11 -15.5 -16t-50 -14.5t-63.5 -25.5q-1 0 -21 -13t-43 -25l-56 -30q-35 -18 -73.5 -32.5t-82 -28t-92 -21.5t-95.5 -8q-179 0 -321.5 40.5t-234 107.5t-152.5 160t-86 192t-25 209z" />
<glyph unicode="&#x11d;" horiz-adv-x="999" d="M254 1022q0 5 8 18l64 98q30 45 46 73l30 51q13 23 18.5 34t11.5 19t10 10t12 2h52q21 0 35 -23q33 -59 78 -127l71 -107q26 -39 26 -47q0 -16 -22 -16q-15 0 -109.5 87t-100.5 87q-13 0 -104 -86t-106 -86q-20 0 -20 13zM80 -199q0 35 15 64t37 46t44 30l37 21 q15 9 15 14q0 4 -10.5 12t-23.5 19t-23.5 35t-10.5 55q0 48 16.5 87.5t37.5 59.5l36 34q17 16 17 21q0 8 -14.5 19.5t-35 29.5t-41 44t-35 73.5t-14.5 107.5q0 36 8.5 73.5t32.5 82t61.5 78.5t103 56.5t148.5 22.5q62 0 112.5 -12.5t74.5 -27.5l44 -28q20 -13 28 -13 q11 0 24.5 4t23.5 9l28 12q18 8 28 12q18 8 29 25t15 33t11.5 28.5t18.5 12.5q27 0 27 -18q0 -50 -15 -105.5t-31 -79.5q-27 -40 -84 -65q23 -61 23 -101q0 -130 -99 -220.5t-240 -90.5q-54 0 -101 8.5t-55 8.5q-5 0 -12 -1t-22.5 -6.5t-27.5 -15t-21.5 -29.5t-9.5 -47 q0 -30 13 -50t33.5 -31.5t59 -17.5t74 -7.5t94.5 -1.5h95q32 0 56.5 -1.5t62.5 -6.5t66 -17t55 -31t41.5 -50.5t14.5 -73.5q0 -64 -13 -95q-40 -100 -161 -159.5t-280 -59.5q-66 0 -128 10.5t-121.5 34t-95.5 69.5t-36 110zM199 -187q0 -91 75 -136.5t187 -45.5 q126 0 227.5 52.5t101.5 133.5q0 25 -8 44t-25.5 30t-35 18t-48.5 10t-52 3.5t-58 0.5h-18q-65 0 -159 14l-94 14q-21 0 -57 -41t-36 -97zM282 594q0 -123 59 -205t147 -82q92 0 141 70.5t49 173.5q0 73 -24 138t-74 109t-116 44q-76 0 -129 -65t-53 -183z" />
<glyph unicode="&#x11e;" horiz-adv-x="1675" d="M632 1825q0 5 22 5h9q6 0 14 -10.5t16.5 -26.5t25.5 -35t37.5 -35t54 -26.5t74.5 -10.5q46 0 81.5 15t53.5 36t30 42l20 36q8 15 15 15h9q22 0 22 -5q0 -34 -14.5 -76.5t-42.5 -84t-77 -69.5t-109 -28t-108.5 26.5t-76 66.5t-42 83t-14.5 82zM90 674q0 165 52 309 t150.5 253.5t252.5 173t345 63.5q97 0 183.5 -15t142 -36.5t96 -43t62.5 -36.5t26 -15q7 0 28 15.5t30 15.5q29 0 31 -42q2 -59 9.5 -124.5t13.5 -108t6 -50.5q0 -36 -24 -36t-35 24q-72 156 -240.5 263.5t-345.5 107.5q-123 0 -230 -40t-188 -115t-127 -191.5t-46 -259.5 q0 -111 26 -218.5t78 -200.5t124 -164t170.5 -112t210.5 -41q158 0 285.5 71t141.5 164q7 56 7 257q0 53 -15 86t-37 43t-48 15.5t-48 5.5t-37 10.5t-15 33.5q0 21 37 21q26 0 113 -5t113 -5q42 0 89 0.5t77 0.5l30 1q31 0 31 -18q0 -13 -25 -23.5t-52.5 -27t-31.5 -43.5 q-15 -95 -15 -230q0 -80 2.5 -131t5 -71.5t2.5 -25.5q0 -11 -15.5 -16t-50 -14.5t-63.5 -25.5q-1 0 -21 -13t-43 -25l-56 -30q-35 -18 -73.5 -32.5t-82 -28t-92 -21.5t-95.5 -8q-179 0 -321.5 40.5t-234 107.5t-152.5 160t-86 192t-25 209z" />
<glyph unicode="&#x11f;" horiz-adv-x="999" d="M253 1285q0 5 22 5h9q6 0 14 -10.5t16.5 -26.5t25.5 -35t37.5 -35t54 -26.5t74.5 -10.5q46 0 81.5 15t53.5 36t30 42l20 36q8 15 15 15h9q22 0 22 -5q0 -34 -14.5 -76.5t-42.5 -84t-77 -69.5t-109 -28t-108.5 26.5t-76 66.5t-42 83t-14.5 82zM80 -199q0 35 15 64t37 46 t44 30l37 21q15 9 15 14q0 4 -10.5 12t-23.5 19t-23.5 35t-10.5 55q0 48 16.5 87.5t37.5 59.5l36 34q17 16 17 21q0 8 -14.5 19.5t-35 29.5t-41 44t-35 73.5t-14.5 107.5q0 36 8.5 73.5t32.5 82t61.5 78.5t103 56.5t148.5 22.5q62 0 112.5 -12.5t74.5 -27.5l44 -28 q20 -13 28 -13q11 0 24.5 4t23.5 9l28 12q18 8 28 12q18 8 29 25t15 33t11.5 28.5t18.5 12.5q27 0 27 -18q0 -50 -15 -105.5t-31 -79.5q-27 -40 -84 -65q23 -61 23 -101q0 -130 -99 -220.5t-240 -90.5q-54 0 -101 8.5t-55 8.5q-5 0 -12 -1t-22.5 -6.5t-27.5 -15t-21.5 -29.5 t-9.5 -47q0 -30 13 -50t33.5 -31.5t59 -17.5t74 -7.5t94.5 -1.5h95q32 0 56.5 -1.5t62.5 -6.5t66 -17t55 -31t41.5 -50.5t14.5 -73.5q0 -64 -13 -95q-40 -100 -161 -159.5t-280 -59.5q-66 0 -128 10.5t-121.5 34t-95.5 69.5t-36 110zM199 -187q0 -91 75 -136.5t187 -45.5 q126 0 227.5 52.5t101.5 133.5q0 25 -8 44t-25.5 30t-35 18t-48.5 10t-52 3.5t-58 0.5h-18q-65 0 -159 14l-94 14q-21 0 -57 -41t-36 -97zM282 594q0 -123 59 -205t147 -82q92 0 141 70.5t49 173.5q0 73 -24 138t-74 109t-116 44q-76 0 -129 -65t-53 -183z" />
<glyph unicode="&#x120;" horiz-adv-x="1675" d="M769 1749q0 24 35 67.5t66 43.5q34 0 65 -41t31 -75q0 -33 -39.5 -72.5t-57.5 -39.5q-40 0 -70 43t-30 74zM90 674q0 165 52 309t150.5 253.5t252.5 173t345 63.5q97 0 183.5 -15t142 -36.5t96 -43t62.5 -36.5t26 -15q7 0 28 15.5t30 15.5q29 0 31 -42q2 -59 9.5 -124.5 t13.5 -108t6 -50.5q0 -36 -24 -36t-35 24q-72 156 -240.5 263.5t-345.5 107.5q-123 0 -230 -40t-188 -115t-127 -191.5t-46 -259.5q0 -111 26 -218.5t78 -200.5t124 -164t170.5 -112t210.5 -41q158 0 285.5 71t141.5 164q7 56 7 257q0 53 -15 86t-37 43t-48 15.5t-48 5.5 t-37 10.5t-15 33.5q0 21 37 21q26 0 113 -5t113 -5q42 0 89 0.5t77 0.5l30 1q31 0 31 -18q0 -13 -25 -23.5t-52.5 -27t-31.5 -43.5q-15 -95 -15 -230q0 -80 2.5 -131t5 -71.5t2.5 -25.5q0 -11 -15.5 -16t-50 -14.5t-63.5 -25.5q-1 0 -21 -13t-43 -25l-56 -30 q-35 -18 -73.5 -32.5t-82 -28t-92 -21.5t-95.5 -8q-179 0 -321.5 40.5t-234 107.5t-152.5 160t-86 192t-25 209z" />
<glyph unicode="&#x121;" horiz-adv-x="999" d="M390 1209q0 24 35 67.5t66 43.5q34 0 65 -41t31 -75q0 -33 -39.5 -72.5t-57.5 -39.5q-40 0 -70 43t-30 74zM80 -199q0 35 15 64t37 46t44 30l37 21q15 9 15 14q0 4 -10.5 12t-23.5 19t-23.5 35t-10.5 55q0 48 16.5 87.5t37.5 59.5l36 34q17 16 17 21q0 8 -14.5 19.5 t-35 29.5t-41 44t-35 73.5t-14.5 107.5q0 36 8.5 73.5t32.5 82t61.5 78.5t103 56.5t148.5 22.5q62 0 112.5 -12.5t74.5 -27.5l44 -28q20 -13 28 -13q11 0 24.5 4t23.5 9l28 12q18 8 28 12q18 8 29 25t15 33t11.5 28.5t18.5 12.5q27 0 27 -18q0 -50 -15 -105.5t-31 -79.5 q-27 -40 -84 -65q23 -61 23 -101q0 -130 -99 -220.5t-240 -90.5q-54 0 -101 8.5t-55 8.5q-5 0 -12 -1t-22.5 -6.5t-27.5 -15t-21.5 -29.5t-9.5 -47q0 -30 13 -50t33.5 -31.5t59 -17.5t74 -7.5t94.5 -1.5h95q32 0 56.5 -1.5t62.5 -6.5t66 -17t55 -31t41.5 -50.5t14.5 -73.5 q0 -64 -13 -95q-40 -100 -161 -159.5t-280 -59.5q-66 0 -128 10.5t-121.5 34t-95.5 69.5t-36 110zM199 -187q0 -91 75 -136.5t187 -45.5q126 0 227.5 52.5t101.5 133.5q0 25 -8 44t-25.5 30t-35 18t-48.5 10t-52 3.5t-58 0.5h-18q-65 0 -159 14l-94 14q-21 0 -57 -41 t-36 -97zM282 594q0 -123 59 -205t147 -82q92 0 141 70.5t49 173.5q0 73 -24 138t-74 109t-116 44q-76 0 -129 -65t-53 -183z" />
<glyph unicode="&#x122;" horiz-adv-x="1675" d="M799 -162q0 3 2 5.5t7 7t8 7.5l12 8l13 9q3 2 16 13.5t23 16.5t22 5q6 0 22 -7t35.5 -21t34 -40t14.5 -58q0 -48 -22 -88t-52 -62t-55.5 -34t-39.5 -12q-9 0 -14.5 5t-5.5 9q0 7 21.5 18.5t43 35t21.5 60.5q0 31 -16.5 51.5t-36.5 28t-36.5 18.5t-16.5 24zM90 674 q0 165 52 309t150.5 253.5t252.5 173t345 63.5q97 0 183.5 -15t142 -36.5t96 -43t62.5 -36.5t26 -15q7 0 28 15.5t30 15.5q29 0 31 -42q2 -59 9.5 -124.5t13.5 -108t6 -50.5q0 -36 -24 -36t-35 24q-72 156 -240.5 263.5t-345.5 107.5q-123 0 -230 -40t-188 -115t-127 -191.5 t-46 -259.5q0 -111 26 -218.5t78 -200.5t124 -164t170.5 -112t210.5 -41q158 0 285.5 71t141.5 164q7 56 7 257q0 53 -15 86t-37 43t-48 15.5t-48 5.5t-37 10.5t-15 33.5q0 21 37 21q26 0 113 -5t113 -5q42 0 89 0.5t77 0.5l30 1q31 0 31 -18q0 -13 -25 -23.5t-52.5 -27 t-31.5 -43.5q-15 -95 -15 -230q0 -80 2.5 -131t5 -71.5t2.5 -25.5q0 -11 -15.5 -16t-50 -14.5t-63.5 -25.5q-1 0 -21 -13t-43 -25l-56 -30q-35 -18 -73.5 -32.5t-82 -28t-92 -21.5t-95.5 -8q-179 0 -321.5 40.5t-234 107.5t-152.5 160t-86 192t-25 209z" />
<glyph unicode="&#x123;" horiz-adv-x="999" d="M379 1148q0 48 22 88t52 62t55.5 34t39.5 12q9 0 14.5 -5t5.5 -9q0 -7 -21.5 -18.5t-43 -35t-21.5 -60.5q0 -31 16.5 -51.5t36.5 -28t36.5 -18.5t16.5 -24q0 -3 -2 -5.5t-7 -7t-9 -7.5l-12 -8l-12 -9q-3 -2 -16 -13.5t-23 -16.5t-22 -5q-6 0 -22 7t-35.5 21t-34 40 t-14.5 58zM80 -199q0 35 15 64t37 46t44 30l37 21q15 9 15 14q0 4 -10.5 12t-23.5 19t-23.5 35t-10.5 55q0 48 16.5 87.5t37.5 59.5l36 34q17 16 17 21q0 8 -14.5 19.5t-35 29.5t-41 44t-35 73.5t-14.5 107.5q0 36 8.5 73.5t32.5 82t61.5 78.5t103 56.5t148.5 22.5 q62 0 112.5 -12.5t74.5 -27.5l44 -28q20 -13 28 -13q11 0 24.5 4t23.5 9l28 12q18 8 28 12q18 8 29 25t15 33t11.5 28.5t18.5 12.5q27 0 27 -18q0 -50 -15 -105.5t-31 -79.5q-27 -40 -84 -65q23 -61 23 -101q0 -130 -99 -220.5t-240 -90.5q-54 0 -101 8.5t-55 8.5 q-5 0 -12 -1t-22.5 -6.5t-27.5 -15t-21.5 -29.5t-9.5 -47q0 -30 13 -50t33.5 -31.5t59 -17.5t74 -7.5t94.5 -1.5h95q32 0 56.5 -1.5t62.5 -6.5t66 -17t55 -31t41.5 -50.5t14.5 -73.5q0 -64 -13 -95q-40 -100 -161 -159.5t-280 -59.5q-66 0 -128 10.5t-121.5 34t-95.5 69.5 t-36 110zM199 -187q0 -91 75 -136.5t187 -45.5q126 0 227.5 52.5t101.5 133.5q0 25 -8 44t-25.5 30t-35 18t-48.5 10t-52 3.5t-58 0.5h-18q-65 0 -159 14l-94 14q-21 0 -57 -41t-36 -97zM282 594q0 -123 59 -205t147 -82q92 0 141 70.5t49 173.5q0 73 -24 138t-74 109 t-116 44q-76 0 -129 -65t-53 -183z" />
<glyph unicode="&#x124;" horiz-adv-x="1619" d="M571 1562q0 5 8 18l64 98q30 45 46 73l30 51q13 23 18.5 34t11.5 19t10 10t12 2h52q21 0 35 -23q33 -59 78 -127l71 -107q26 -39 26 -47q0 -16 -22 -16q-15 0 -109.5 87t-100.5 87q-13 0 -104 -86t-106 -86q-20 0 -20 13zM40 1432q0 22 58 22q22 0 94 -4.5t137 -4.5 q39 0 75 2t106 2q46 0 46 -28q0 -17 -13.5 -26t-58.5 -9q-29 0 -48 -49.5t-25 -103t-6 -102.5q0 -15 0.5 -40.5t0.5 -35.5q0 -51 -2 -113t-2 -76q0 -52 12.5 -65.5t57.5 -13.5q4 0 79.5 1t255.5 1q17 0 56 -0.5t127.5 -1.5t203.5 -2q12 0 16 16q7 29 7 268q0 17 -0.5 53.5 t-0.5 56.5q0 67 -12.5 111.5t-31.5 62t-41.5 27t-41.5 10.5t-31.5 9t-12.5 26q0 20 79 20q21 0 88.5 -2t110.5 -2q22 0 71.5 2t88.5 2q46 0 46 -26t-28 -26q-57 0 -86 -35t-30 -92q-6 -394 -6 -497q0 -47 -2 -150t-2 -159v-76q0 -62 3.5 -113.5t3.5 -73.5q0 -129 173 -151 q24 -4 24 -23q0 -15 -21.5 -19.5t-78.5 -4.5q-22 0 -75 6t-84 6q-36 0 -89 -6t-103 -6q-44 0 -59 4.5t-15 23.5q0 13 20.5 22.5t45.5 16t48 24t28 43.5q15 79 15 150q0 21 0.5 58t0.5 52q0 36 2.5 119.5t2.5 132.5q0 30 -24 42.5t-105 12.5q-32 0 -142 -3t-111 -3 q-89 0 -202 3.5t-174 3.5q-30 0 -41 -13.5t-11 -63.5q0 -52 -3.5 -133.5t-3.5 -118.5v-87q0 -88 16.5 -131.5t79.5 -83.5q18 -11 88 -11q15 0 26.5 -7.5t11.5 -15.5q0 -36 -65 -36q-60 0 -100.5 4t-69.5 4q-58 0 -123.5 -5t-97.5 -5q-39 0 -61.5 4.5t-28.5 10.5t-6 16 q0 15 12.5 21.5t32 10t40.5 10.5t39.5 29.5t27.5 59.5q7 31 16.5 207t9.5 339v117q0 27 1 102t1 119q0 156 -12 244q-7 51 -55.5 80t-99.5 29q-21 0 -32 13t-11 22z" />
</font>
</defs>
</svg>
